(Classical) Richard Strauss - Vier letzte Lieder; Wagner - Wesendonk-Lieder (Jessye Norman, Gewandhausorchester Leipzig, Kurt Masur, London Symphony Orchestra, Colin Davis) - 2000, FLAC (image+.cue) lossless


 

[Цитировать]

Richard Strauss - Vier letzte Lieder; Wagner - Wesendonk-Lieder (Jessye Norman, Gewandhausorchester Leipzig, Kurt Masur, London Symphony Orchestra, Colin Davis)
Жанр: Classical
Год издания диска: 2000
Издатель (лейбл): DECCA
Аудиокодек: FLAC
Тип рипа: image+.cue
Битрейт аудио: lossless
Продолжительность: 51:02
Источник: собственный рип
Наличие сканов в содержимом раздачи: нет
Треклист:
Richard Strauss
Vier letzte Lieder
1. Fruhling
2. September
3. Beim Schlafengehen
4. Im Abendrot
Jessye Norman, Gewandhausorchester Leipzig, Kurt Masur
Richard Wagner
Wesendonk-Lieder
Orchestration by Felix Mottl
5. Der Engel
6. Stehe still
7. Im Treibhaus
8. Schmerzen
9. Traume
Jessye Norman, London Symphony Orchestra, Sir Colin Davis
Исполнители:
Jessye Norman,
Gewandhausorchester Leipzig, Kurt Masur
London Symphony Orchestra, Sir Colin Davis

Лог создания рипа

Exact Audio Copy V1.0 beta 3 from 29. August 2011
EAC extraction logfile from 14. January 2014, 15:54
Jessye Norman / Strauss. Four Last Songs, Wagner. Wesendonck-Lieder
Used drive : Optiarc DVD RW AD-7260S Adapter: 2 ID: 0
Read mode : SecureUtilize accurate stream : YesDefeat audio cache : YesMake use of C2 pointers : No
Read offset correction : 48Overread into Lead-In and Lead-Out : NoFill up missing offset samples with silence : YesDelete leading and trailing silent blocks : NoNull samples used in CRC calculations : YesUsed interface : Native Win32 interface for Win NT & 2000
Used output format : User Defined EncoderSelected bitrate : 1024 kBit/sQuality : HighAdd ID3 tag : NoCommand line compressor : C:\Program Files (x86)\Exact Audio Copy\FLAC\FLAC.EXEAdditional command line options : -6 -V -T "ARTIST=%artist%" -T "TITLE=%title%" -T "ALBUM=%albumtitle%" -T "DATE=%year%" -T "TRACKNUMBER=%tracknr%" -T "GENRE=%genre%" -T "COMMENT=%comment%" -T "BAND=%albuminterpret%" -T "ALBUMARTIST=%albuminterpret%" -T "COMPOSER=%composer%" %haslyrics%--tag-from-file=LYRICS="%lyricsfile%"%haslyrics% -T "DISCNUMBER=%cdnumber%" -T "TOTALDISCS=%totalcds%" -T "TOTALTRACKS=%numtracks%" %hascover%--picture="%coverfile%"%hascover% %source% -o %dest%
TOC of the extracted CD
Track | Start | Length | Start sector | End sector --------------------------------------------------------- 1 | 0:00.00 | 3:46.62 | 0 | 17011 2 | 3:46.62 | 5:30.40 | 17012 | 41801 3 | 9:17.27 | 6:07.18 | 41802 | 69344 4 | 15:24.45 | 9:58.65 | 69345 | 114259 5 | 25:23.35 | 3:27.00 | 114260 | 129784 6 | 28:50.35 | 4:14.02 | 129785 | 148836 7 | 33:04.37 | 7:08.55 | 148837 | 180991 8 | 40:13.17 | 2:33.13 | 180992 | 192479 9 | 42:46.30 | 4:53.55 | 192480 | 214509
Range status and errors
Selected range
Filename D:\Strauss. Four Last Songs, Wagner. Wesendonck-Lieder. Jessye Norman.wav
Peak level 99.9 % Extraction speed 3.8 X Range quality 100.0 % Test CRC E0E45E1D Copy CRC E0E45E1D Copy OK
No errors occurred
AccurateRip summary
Track 1 accurately ripped (confidence 38) [80D25609] (AR v2)Track 2 accurately ripped (confidence 38) [6A3FACE4] (AR v2)Track 3 accurately ripped (confidence 38) [C5BC3D07] (AR v2)Track 4 accurately ripped (confidence 38) [9E3BF45A] (AR v2)Track 5 accurately ripped (confidence 37) [26B8DD82] (AR v2)Track 6 accurately ripped (confidence 38) [A79833D1] (AR v2)Track 7 accurately ripped (confidence 38) [76024FEF] (AR v2)Track 8 accurately ripped (confidence 38) [90B55088] (AR v2)Track 9 accurately ripped (confidence 38) [C217374A] (AR v2)
All tracks accurately ripped
End of status report
---- CUETools DB Plugin V2.1.3
[CTDB TOCID: pVdcdPILph9lfMfLCBpRB889FU0-] found, Submit result: pVdcdPILph9lfMfLCBpRB889FU0- has been confirmed[c1c4d967] (33/33) Accurately ripped

Содержание индексной карты (.CUE)

REM GENRE VocalREM DATE 2001REM DISCID 850B2C09REM COMMENT "ExactAudioCopy v1.0b3"PERFORMER "Jessye Norman"TITLE "Strauss. Four Last Songs, Wagner. Wesendonk-Lieder"FILE "Strauss. Four Last Songs, Wagner. Wesendonk-Lieder. Jessye Norman.flac" WAVE TRACK 01 AUDIO TITLE "Vier letzte Lieder - Fruhling" PERFORMER "Jessye Norman" INDEX 01 00:00:00 TRACK 02 AUDIO TITLE "Vier letzte Lieder - September" PERFORMER "Jessye Norman" INDEX 00 03:43:70 INDEX 01 03:46:62 TRACK 03 AUDIO TITLE "Vier letzte Lieder - Beim Schlafengehen" PERFORMER "Jessye Norman" INDEX 00 09:12:67 INDEX 01 09:17:27 TRACK 04 AUDIO TITLE "Vier letzte Lieder - Im Abendrot" PERFORMER "Jessye Norman" INDEX 00 15:22:10 INDEX 01 15:24:45 TRACK 05 AUDIO TITLE "Wesendonk Lieder, No.1 - Der Engel" PERFORMER "Jessye Norman" INDEX 00 25:18:35 INDEX 01 25:23:35 TRACK 06 AUDIO TITLE "Wesendonk Lieder, No.2 - Stehe still!" PERFORMER "Jessye Norman" INDEX 00 28:48:10 INDEX 01 28:50:35 TRACK 07 AUDIO TITLE "Wesendonk Lieder, No.3 - Im Treibhaus" PERFORMER "Jessye Norman" INDEX 00 33:01:00 INDEX 01 33:04:37 TRACK 08 AUDIO TITLE "Wesendonk Lieder, No.4 - Schmerzen" PERFORMER "Jessye Norman" INDEX 00 40:10:07 INDEX 01 40:13:17 TRACK 09 AUDIO TITLE "Wesendonk Lieder, No.5 - Traume" PERFORMER "Jessye Norman" INDEX 00 42:44:22 INDEX 01 42:46:30



Показать сообщения:    

Текущее время: 05-Дек 19:39

Часовой пояс: UTC + 3


Вы не можете начинать темы
Вы не можете отвечать на сообщения
Вы не можете редактировать свои сообщения
Вы не можете удалять свои сообщения
Вы не можете голосовать в опросах
Вы не можете прикреплять файлы к сообщениям
Вы не можете скачивать файлы