(Classical) Great Voices of the Early Years [Box set, 5CD] - 1998, FLAC (image+.cue) lossless


 

[Цитировать]

Great Voices of the Early Years [Box set]
Жанр: Classical
Год издания диска: 1998
Издатель (лейбл): Deutsche Grammophon
Номер по каталогу: 459 066-2
Аудиокодек: FLAC
Тип рипа: image+.cue
Битрейт аудио: lossless
Продолжительность: 6:19;01
Источник: собственный рип
Наличие сканов в содержимом раздачи: да (только обложки)
Треклист и исполнители:

CD 1 - Italian Opera Arias [74:05]

1. Verdi- Rigoletto: 'Pari siamo'!, 1927 (3:38)2. 'Cortigiani, vil razza dannata', 1927 (4:15)Heinrich Schlusnus (Baritone)3. Verdi- Otello: 'Niun mi tema', 1928 (4:46)4. Leoncavallo- Pagliacci: 'Recitar!...Vesti la giubba', 1928 (3:50)Leo Slezak (Tenor) 5. Mascagni- Cavalleria Rusticana: Siziliana 'O Lola ch'hai di latti la cammisa'... (2:21)Koloman von Pataky (Tenor)6. Leoncavallo- Mattinata: Schon geht ein duftiges Spriessen, 1928 (3:29)7. Verdi- Otello: 'Tu?! Indietro! fuggi!', 1937 (2:22)Franz Volker (Tenor)8. Puccini- La Boheme: 'Quando men vo soletta per la vie', 1934 (2:47)9. Verdi- Rigoletto: 'Caro nome', 1935 (3:23)10. Donizetti- La Fille Du Regiment: Tirolienne: 'Qu'est-ce que c'est que j'enten... (2:28)Erna Berger (Soprano)11. Verdi- Rigoletto: 'La donna e mobile', 1935 (2:01)12. Puccini- TOSCA: 'Recondita armonia', 1937 (2:07)Julius Patzak (Tenor)13. Verdi- La forza del destino: 'Oh, tu che in seno agli angeli', 1935 (4:40)Helge Rosvaenge (Tenor) 14. Verdi- Aida: 'I sacri nomi di padre', 1937 (3:31)Tiana Lemnitz (Soprano)15. Puccini- TOSCA: 'E lucevan le stelle', 1939 (2:42)16. Donizetti- L'Elisir d'Amore: 'Una furtiva lagrima', 1939 (4:13)Gino Sinimberghi (Tenor)17. Rossini- Il Barbiere di Siviglia: 'Una voce poco fa', 1942 (6:32)Alda Noni (Soprano)18. Rossini- Il Barbiere di Siviglia: 'La calunnia e un venticello', 1942 (4:25)Georg Hann (Bass)19. Puccini- TOSCA: 'Vissi d'arte', 1941 (3:14)20. Madame Butterfly: 'Un bel di vedremo', 1941 (4:11)Maria Cebotari (Soprano) 21. Puccini- Turandot: 'Nessun dorma', 1942 (3:10)Alfons Fugel (Tenor)

LOG CD1

Exact Audio Copy V1.0 beta 3 from 29. August 2011
EAC extraction logfile from 6. January 2014, 17:14
- / Great Voices of the Early Years - CD 1 - Italian Opera Arias
Used drive : ATAPI iHAS122 C Adapter: 0 ID: 2
Read mode : Secure
Utilize accurate stream : Yes
Defeat audio cache : Yes
Make use of C2 pointers : No
Read offset correction : 6
Overread into Lead-In and Lead-Out : No
Fill up missing offset samples with silence : Yes
Delete leading and trailing silent blocks : No
Null samples used in CRC calculations : Yes
Used interface : Installed external ASPI interface
Used output format : User Defined Encoder
Selected bitrate : 192 kBit/s
Quality : High
Add ID3 tag : No
Command line compressor : C:\Program Files\Exact Audio Copy\Flac\flac.exe
Additional command line options : -V -8 -T "Date=%year%" -T "Genre=%genre%" %source%
TOC of the extracted CD
Track | Start | Length | Start sector | End sector
---------------------------------------------------------
1 | 0:00.00 | 3:38.00 | 0 | 16349
2 | 3:38.00 | 4:15.00 | 16350 | 35474
3 | 7:53.00 | 4:46.00 | 35475 | 56924
4 | 12:39.00 | 3:50.00 | 56925 | 74174
5 | 16:29.00 | 2:21.00 | 74175 | 84749
6 | 18:50.00 | 3:29.00 | 84750 | 100424
7 | 22:19.00 | 2:22.00 | 100425 | 111074
8 | 24:41.00 | 2:47.00 | 111075 | 123599
9 | 27:28.00 | 3:23.00 | 123600 | 138824
10 | 30:51.00 | 2:28.00 | 138825 | 149924
11 | 33:19.00 | 2:01.00 | 149925 | 158999
12 | 35:20.00 | 2:07.00 | 159000 | 168524
13 | 37:27.00 | 4:40.00 | 168525 | 189524
14 | 42:07.00 | 3:31.00 | 189525 | 205349
15 | 45:38.00 | 2:42.00 | 205350 | 217499
16 | 48:20.00 | 4:13.00 | 217500 | 236474
17 | 52:33.00 | 6:32.00 | 236475 | 265874
18 | 59:05.00 | 4:25.00 | 265875 | 285749
19 | 63:30.00 | 3:14.00 | 285750 | 300299
20 | 66:44.00 | 4:11.00 | 300300 | 319124
21 | 70:55.00 | 3:10.00 | 319125 | 333374
Range status and errors
Selected range
Filename C:\Program Files\Exact Audio Copy\Flac\Great Voices of the Early Years - CD 1 - Italian Opera Arias.wav
Peak level 99.9 %
Extraction speed 10.0 X
Range quality 100.0 %
Test CRC EC49DFD5
Copy CRC EC49DFD5
Copy OK
No errors occurred
AccurateRip summary
Track 1 accurately ripped (confidence 2) [54568A53] (AR v2)
Track 2 accurately ripped (confidence 2) [F1B8B317] (AR v2)
Track 3 accurately ripped (confidence 2) [9DFB68CA] (AR v2)
Track 4 accurately ripped (confidence 2) [C946EF95] (AR v2)
Track 5 accurately ripped (confidence 2) [E3C8007D] (AR v2)
Track 6 accurately ripped (confidence 2) [B1CE3078] (AR v2)
Track 7 accurately ripped (confidence 2) [0A646448] (AR v2)
Track 8 accurately ripped (confidence 2) [8078B43C] (AR v2)
Track 9 accurately ripped (confidence 2) [A5B289CC] (AR v2)
Track 10 accurately ripped (confidence 2) [72E6CAA8] (AR v2)
Track 11 accurately ripped (confidence 2) [24D14D9E] (AR v2)
Track 12 accurately ripped (confidence 2) [4D0F06C4] (AR v2)
Track 13 accurately ripped (confidence 2) [7BFDB450] (AR v2)
Track 14 accurately ripped (confidence 2) [EF346D70] (AR v2)
Track 15 accurately ripped (confidence 2) [1F18D5EB] (AR v2)
Track 16 accurately ripped (confidence 2) [C7CEC843] (AR v2)
Track 17 accurately ripped (confidence 2) [55638BFC] (AR v2)
Track 18 accurately ripped (confidence 2) [187636E1] (AR v2)
Track 19 accurately ripped (confidence 2) [516D0AB4] (AR v2)
Track 20 accurately ripped (confidence 2) [86954A2F] (AR v2)
Track 21 accurately ripped (confidence 2) [023CE5BA] (AR v2)
All tracks accurately ripped
End of status report
==== Log checksum FD2E2DBD3C2142AC2674E850D5EE9D864AE947396DACB260D64610DEBE772080 ====

CUE CD1

REM GENRE Opera
REM DATE 1998
REM DISCID 07115D15
REM COMMENT "ExactAudioCopy v1.0b3"
PERFORMER ""
TITLE "Great Voices of the Early Years - CD 1 - Italian Opera Arias"
FILE "Great Voices of the Early Years - CD 1 - Italian Opera Arias.flac" WAVE
TRACK 01 AUDIO
TITLE "Verdi- Rigoletto: 'Pari siamo'!, 1927"
PERFORMER "Heinrich Schlusnus (Baritone)"
INDEX 01 00:00:00
TRACK 02 AUDIO
TITLE "Verdi- Rigoletto: 'Cortigiani, vil razza dannata', 1927"
PERFORMER "Heinrich Schlusnus (Baritone)"
INDEX 01 03:38:00
TRACK 03 AUDIO
TITLE "Verdi- Otello: 'Niun mi tema', 1928"
PERFORMER "Leo Slezak (Tenor)"
INDEX 01 07:53:00
TRACK 04 AUDIO
TITLE "Leoncavallo- Pagliacci: 'Recitar!...Vesti la giubba', 1928"
PERFORMER "Leo Slezak (Tenor)"
INDEX 01 12:39:00
TRACK 05 AUDIO
TITLE "Mascagni- Cavalleria Rusticana: Siziliana 'O Lola ch'hai di latti la cammisa'..."
PERFORMER "Koloman von Pataky (Tenor)"
INDEX 01 16:29:00
TRACK 06 AUDIO
TITLE "Leoncavallo- Mattinata: Schon geht ein duftiges Spriessen, 1928"
PERFORMER "Franz Volker (Tenor)"
INDEX 01 18:50:00
TRACK 07 AUDIO
TITLE "Verdi- Otello: 'Tu?! Indietro! fuggi!', 1937"
PERFORMER "Franz Volker (Tenor)"
INDEX 01 22:19:00
TRACK 08 AUDIO
TITLE "Puccini- La Boheme: 'Quando men vo soletta per la vie', 1934"
PERFORMER "Erna Berger (Soprano)"
INDEX 01 24:41:00
TRACK 09 AUDIO
TITLE "Verdi- Rigoletto: 'Caro nome', 1935"
PERFORMER "Erna Berger (Soprano)"
INDEX 01 27:28:00
TRACK 10 AUDIO
TITLE "Donizetti- La Fille Du Regiment: Tirolienne: 'Qu'est-ce que c'est que j'enten..."
PERFORMER "Erna Berger (Soprano)"
INDEX 01 30:51:00
TRACK 11 AUDIO
TITLE "Verdi- Rigoletto: 'La donna e mobile', 1935"
PERFORMER "Julius Patzak (Tenor)"
INDEX 01 33:19:00
TRACK 12 AUDIO
TITLE "Puccini- TOSCA: 'Recondita armonia', 1937"
PERFORMER "Julius Patzak (Tenor)"
INDEX 01 35:20:00
TRACK 13 AUDIO
TITLE "Verdi- La forza del destino: 'Oh, tu che in seno agli angeli', 1935"
PERFORMER "Helge Rosvaenge (Tenor)"
INDEX 01 37:27:00
TRACK 14 AUDIO
TITLE "Verdi- Aida: 'I sacri nomi di padre', 1937"
PERFORMER "Tiana Lemnitz (Soprano)"
INDEX 01 42:07:00
TRACK 15 AUDIO
TITLE "Puccini- TOSCA: 'E lucevan le stelle', 1939"
PERFORMER "Gino Sinimberghi (Tenor)"
INDEX 01 45:38:00
TRACK 16 AUDIO
TITLE "Donizetti- L'Elisir d'Amore: 'Una furtiva lagrima', 1939"
PERFORMER "Gino Sinimberghi (Tenor)"
INDEX 01 48:20:00
TRACK 17 AUDIO
TITLE "Rossini- Il Barbiere di Siviglia: 'Una voce poco fa', 1942"
PERFORMER "Alda Noni (Soprano)"
INDEX 01 52:33:00
TRACK 18 AUDIO
TITLE "Rossini- Il Barbiere di Siviglia: 'La calunnia e un venticello', 1942"
PERFORMER "Georg Hann (Bass)"
INDEX 01 59:05:00
TRACK 19 AUDIO
TITLE "Puccini- TOSCA: 'Vissi d'arte', 1941"
PERFORMER "Maria Cebotari (Soprano)"
INDEX 01 63:30:00
TRACK 20 AUDIO
TITLE "Puccini- Madame Butterfly: 'Un bel di vedremo', 1941"
PERFORMER "Maria Cebotari (Soprano)"
INDEX 01 66:44:00
TRACK 21 AUDIO
TITLE "Puccini- Turandot: 'Nessun dorma', 1942"
PERFORMER "Alfons Fugel (Tenor)"
INDEX 01 70:55:00

CD 2 - Wagner, Scenes and Aria [77:29]

1. Parsifal: 'Ich sah das Kind an seiner Mutter Brust', 1925 (4:39)Frida Leider (Soprano)2. Lohengrin: In fernem Land, 1928 (8:30)3. Die Meistersinger von Nurnberg: Morgenlich leutchtend im rosigen Schein, 1928 (4:26)Leo Slezak (Tenor)4. Parsifal: Des Weihgefasses gottlicher Gehalt, 1928 (5:03)Theodor Scheidl (Baritone) 5. Das Rheingold: Weiche, Wotan, weiche!, 1928 (3:53)Karin Branzell (Contralto) 6. Rienzi's Prayer: Allmacht'ger Vater, blick herab, 1930 (4:36)Franz Volker (Tenor) 7. Die Meistersinger von Nurnberg: Was duftet doch der Flieder, 1942 (6:46)8. Wahn, Wahn, uberall Wahn, 1942 (7:03)9. Der fliegende Hollander: The Dutchman's monologue, 1943 (8:51)Hans Hotter (Bass-Baritone) 10. Die Walkure: Ein Schwert verhiess mir der Vater, 1941 (23:42)Max Lorenz (Tenor), Maria Reining (Soprano)

LOG CD2

Exact Audio Copy V1.0 beta 3 from 29. August 2011
EAC extraction logfile from 6. January 2014, 17:43
- / Great Voices of the Early Years - CD 2 - Wagner, Scenes and Arias
Used drive : ATAPI iHAS122 C Adapter: 0 ID: 2
Read mode : Secure
Utilize accurate stream : Yes
Defeat audio cache : Yes
Make use of C2 pointers : No
Read offset correction : 6
Overread into Lead-In and Lead-Out : No
Fill up missing offset samples with silence : Yes
Delete leading and trailing silent blocks : No
Null samples used in CRC calculations : Yes
Used interface : Installed external ASPI interface
Used output format : User Defined Encoder
Selected bitrate : 192 kBit/s
Quality : High
Add ID3 tag : No
Command line compressor : C:\Program Files\Exact Audio Copy\Flac\flac.exe
Additional command line options : -V -8 -T "Date=%year%" -T "Genre=%genre%" %source%
TOC of the extracted CD
Track | Start | Length | Start sector | End sector
---------------------------------------------------------
1 | 0:00.00 | 4:39.00 | 0 | 20924
2 | 4:39.00 | 8:30.00 | 20925 | 59174
3 | 13:09.00 | 4:26.00 | 59175 | 79124
4 | 17:35.00 | 5:03.00 | 79125 | 101849
5 | 22:38.00 | 3:53.00 | 101850 | 119324
6 | 26:31.00 | 4:36.00 | 119325 | 140024
7 | 31:07.00 | 6:46.00 | 140025 | 170474
8 | 37:53.00 | 7:03.00 | 170475 | 202199
9 | 44:56.00 | 8:51.00 | 202200 | 242024
10 | 53:47.00 | 23:42.00 | 242025 | 348674
Range status and errors
Selected range
Filename C:\Program Files\Exact Audio Copy\Flac\Great Voices of the Early Years - CD 2 - Wagner, Scenes and Arias.wav
Peak level 95.3 %
Extraction speed 6.2 X
Range quality 99.9 %
Test CRC DC26BEFF
Copy CRC DC26BEFF
Copy OK
No errors occurred
AccurateRip summary
Track 1 accurately ripped (confidence 3) [1D5C869C] (AR v2)
Track 2 accurately ripped (confidence 3) [2D0AF619] (AR v2)
Track 3 accurately ripped (confidence 3) [3BD8D067] (AR v2)
Track 4 accurately ripped (confidence 3) [CAEF1136] (AR v2)
Track 5 accurately ripped (confidence 3) [75C7F004] (AR v2)
Track 6 accurately ripped (confidence 3) [09FA87D3] (AR v2)
Track 7 accurately ripped (confidence 3) [3043DC08] (AR v2)
Track 8 accurately ripped (confidence 3) [4D1A42FB] (AR v2)
Track 9 accurately ripped (confidence 3) [F11FA2E0] (AR v2)
Track 10 accurately ripped (confidence 3) [59FCDACC] (AR v2)
All tracks accurately ripped
End of status report
==== Log checksum 5D823333C3474F6CB791F0F1FE69C7476B08A6C082E8CCAF0E161483CDB7FB3B ====

CUE CD2

REM GENRE Opera
REM DATE 1998
REM DISCID 9812290A
REM COMMENT "ExactAudioCopy v1.0b3"
PERFORMER ""
TITLE "Great Voices of the Early Years - CD 2 - Wagner, Scenes and Arias"
FILE "Great Voices of the Early Years - CD 2 - Wagner, Scenes and Arias.flac" WAVE
TRACK 01 AUDIO
TITLE "Parsifal: 'Ich sah das Kind an seiner Mutter Brust', 1925"
PERFORMER "Frida Leider (Soprano)"
INDEX 01 00:00:00
TRACK 02 AUDIO
TITLE "Lohengrin: In fernem Land, 1928"
PERFORMER "Leo Slezak (Tenor)"
INDEX 01 04:39:00
TRACK 03 AUDIO
TITLE "Die Meistersinger von Nurnberg: Morgenlich leutchtend im rosigen Schein, 1928"
PERFORMER "Leo Slezak (Tenor)"
INDEX 01 13:09:00
TRACK 04 AUDIO
TITLE "Parsifal: Des Weihgefasses gottlicher Gehalt, 1928"
PERFORMER "Theodor Scheidl (Baritone)"
INDEX 01 17:35:00
TRACK 05 AUDIO
TITLE "Das Rheingold: Weiche, Wotan, weiche!, 1928"
PERFORMER "Karin Branzell (Contralto)"
INDEX 01 22:38:00
TRACK 06 AUDIO
TITLE "Rienzi's Prayer: Allmacht'ger Vater, blick herab, 1930"
PERFORMER "Franz Volker (Tenor)"
INDEX 01 26:31:00
TRACK 07 AUDIO
TITLE "Die Meistersinger von Nurnberg: Was duftet doch der Flieder, 1942"
PERFORMER "Hans Hotter (Bass-Baritone)"
INDEX 01 31:07:00
TRACK 08 AUDIO
TITLE "Die Meistersinger von Nurnberg: Wahn, Wahn, uberall Wahn, 1942"
PERFORMER "Hans Hotter (Bass-Baritone)"
INDEX 01 37:53:00
TRACK 09 AUDIO
TITLE "Der fliegende Hollander: The Dutchman's monologue, 1943"
PERFORMER "Hans Hotter (Bass-Baritone)"
INDEX 01 44:56:00
TRACK 10 AUDIO
TITLE "Die Walkure: Ein Schwert verhiess mir der Vater, 1941"
PERFORMER "Max Lorenz (Tenor), Maria Reining (Soprano)"
INDEX 01 53:47:00

CD 3 - German Opera and Operetta [77:26]

1. Lortzing- Undine: Nun ist's vollbracht!, 1927 (4:58)2. Nicolai- The Merry Wives of Windsor: Horch, die Lerche singt im Hain, 1927 (4:07)Heinrich Schlusnus (Baritone)3. Mozart- The Magic Flute: Bei Mannern, welche Liebe fuhlen, 1929 (3:29)Felicie Huni-Mihacsek (Soprano), Willi Domgraf-Fassbaender (Baritone) 4. Mozart- The Magic Flute: Ein Madchen oder Weibchen, 1928 (4:15)Heinrich Rehkemper (Baritone)5. Mozart- The Magic Flute: In diesen heil'gen Hallen, 1927 (4:15)6. O Isis und Osiris, 1927 (3:14)Wilhelm Strienz (Bass) 7. Mozart- The Abduction From The Seraglio: Konstanze, dich wiederzusehen, 1935 (4:29)8. Millocker- Gasparone: O wenn ich doch ein Rauber war, 1934 (2:45)9. Capua- Maria, mari: Schon strahlt die Nacht im Silberschein, 1935 (3:36)Julius Patzak (Tenor)10. Flotow- Martha: Letzte Rose, 1935 (3:07)Erna Berger (Soprano) 11. Flotow- Martha: Ach so fromm, 1935 (3:14)Helge Rosvaenge (Tenor) 12. Niederberger- Liebe bei Hof: Man nehme zwei Herzen, 1937 (3:33)Leo Slezak (Tenor) 13. Niederberger- Chianti Song: Chianti-Lied, 1941 (3:08)14. Strauss II- Eine Nacht In Venedig: The Gondolier's Song, 1941 (3:15)Walther Ludwig (Tenor) 15. Lehar- The Land Of Smiles: Dein ist mein ganzes Herz, 1938 (3:10)Franz Volker (Tenor)16. Strauss- Der Rosenkavalier: Hab' mir's gelobt - Ist ein Traum, kann nicht wir... (9:47)Tiana Lemnitz, Erna Berger, Viorica Ursuleac (Sopranos)17. Weber- Der Freischutz: Einst traumte meiner sel'gen Base ... Trube, 1942 (6:08)Hilde Gueden (Soprano) 18. Nicolai- Die Lustigen Weiber von Windsor: Als Bublein Klein an der Mutterbrus... (2:55)Georg Hann (Bass) 19. Strauss- Ariadne auf Naxos: An Ihre Platze, meine Damen und Herrn!, 1944 (4:01)Maria Reining, Irmgard Seefried (Sopranos), Paul Schoffler (Bass-Baritone)

LOG CD3

Exact Audio Copy V1.0 beta 3 from 29. August 2011
EAC extraction logfile from 6. January 2014, 18:24
- / Great Voices of the Early Years - CD 3 - German Opera and Operetta
Used drive : ATAPI iHAS122 C Adapter: 0 ID: 2
Read mode : Secure
Utilize accurate stream : Yes
Defeat audio cache : Yes
Make use of C2 pointers : No
Read offset correction : 6
Overread into Lead-In and Lead-Out : No
Fill up missing offset samples with silence : Yes
Delete leading and trailing silent blocks : No
Null samples used in CRC calculations : Yes
Used interface : Installed external ASPI interface
Used output format : User Defined Encoder
Selected bitrate : 192 kBit/s
Quality : High
Add ID3 tag : No
Command line compressor : C:\Program Files\Exact Audio Copy\Flac\flac.exe
Additional command line options : -V -8 -T "Date=%year%" -T "Genre=%genre%" %source%
TOC of the extracted CD
Track | Start | Length | Start sector | End sector
---------------------------------------------------------
1 | 0:00.00 | 4:58.00 | 0 | 22349
2 | 4:58.00 | 4:07.00 | 22350 | 40874
3 | 9:05.00 | 3:29.00 | 40875 | 56549
4 | 12:34.00 | 4:15.00 | 56550 | 75674
5 | 16:49.00 | 4:15.00 | 75675 | 94799
6 | 21:04.00 | 3:14.00 | 94800 | 109349
7 | 24:18.00 | 4:29.00 | 109350 | 129524
8 | 28:47.00 | 2:45.00 | 129525 | 141899
9 | 31:32.00 | 3:36.00 | 141900 | 158099
10 | 35:08.00 | 3:07.00 | 158100 | 172124
11 | 38:15.00 | 3:14.00 | 172125 | 186674
12 | 41:29.00 | 3:33.00 | 186675 | 202649
13 | 45:02.00 | 3:08.00 | 202650 | 216749
14 | 48:10.00 | 3:15.00 | 216750 | 231374
15 | 51:25.00 | 3:10.00 | 231375 | 245624
16 | 54:35.00 | 9:47.00 | 245625 | 289649
17 | 64:22.00 | 6:08.00 | 289650 | 317249
18 | 70:30.00 | 2:55.00 | 317250 | 330374
19 | 73:25.00 | 4:01.00 | 330375 | 348449
Range status and errors
Selected range
Filename C:\Program Files\Exact Audio Copy\Flac\Great Voices of the Early Years - CD 3 - German Opera and Operetta.wav
Peak level 97.7 %
Extraction speed 4.8 X
Range quality 99.9 %
Test CRC BAFD6A8B
Copy CRC BAFD6A8B
Copy OK
No errors occurred
AccurateRip summary
Track 1 accurately ripped (confidence 3) [07659939] (AR v2)
Track 2 accurately ripped (confidence 3) [DB6656D9] (AR v2)
Track 3 accurately ripped (confidence 3) [DF138290] (AR v2)
Track 4 accurately ripped (confidence 3) [BD2D1ACA] (AR v2)
Track 5 accurately ripped (confidence 3) [9C8B6184] (AR v2)
Track 6 accurately ripped (confidence 3) [4893EFE8] (AR v2)
Track 7 accurately ripped (confidence 3) [532A32B3] (AR v2)
Track 8 accurately ripped (confidence 3) [B152B082] (AR v2)
Track 9 accurately ripped (confidence 3) [7D4F1483] (AR v2)
Track 10 accurately ripped (confidence 3) [052D8AA9] (AR v2)
Track 11 accurately ripped (confidence 3) [3D18AEFE] (AR v2)
Track 12 accurately ripped (confidence 3) [601F6C8E] (AR v2)
Track 13 accurately ripped (confidence 3) [71BB1207] (AR v2)
Track 14 accurately ripped (confidence 3) [096EA6BA] (AR v2)
Track 15 accurately ripped (confidence 3) [1521205E] (AR v2)
Track 16 accurately ripped (confidence 3) [B0CE165E] (AR v2)
Track 17 accurately ripped (confidence 3) [F63C0987] (AR v2)
Track 18 accurately ripped (confidence 3) [B59D9436] (AR v2)
Track 19 accurately ripped (confidence 3) [AC2D4BA4] (AR v2)
All tracks accurately ripped
End of status report
==== Log checksum 36B97DC2CFCFA6E04EB95027F9311DBDF72E47FF0AE24BF90B361BB7FDEE88E5 ====

CUE CD3

REM GENRE Opera
REM DATE 1998
REM DISCID 0C122613
REM COMMENT "ExactAudioCopy v1.0b3"
PERFORMER ""
TITLE "Great Voices of the Early Years - CD 3 - German Opera and Operetta"
FILE "Great Voices of the Early Years - CD 3 - German Opera and Operetta.flac" WAVE
TRACK 01 AUDIO
TITLE "Lortzing- Undine: Nun ist's vollbracht!, 1927"
PERFORMER "Heinrich Schlusnus (Baritone)"
INDEX 01 00:00:00
TRACK 02 AUDIO
TITLE "Nicolai- The Merry Wives of Windsor: Horch, die Lerche singt im Hain, 1927"
PERFORMER "Heinrich Schlusnus (Baritone)"
INDEX 01 04:58:00
TRACK 03 AUDIO
TITLE "Mozart- The Magic Flute: Bei Mannern, welche Liebe fuhlen, 1929"
PERFORMER "Felicie Huni-Mihacsek (Soprano ), Willi DOmgraf-Fassbaender (Baritone)"
INDEX 01 09:05:00
TRACK 04 AUDIO
TITLE "Mozart- The Magic Flute: Ein Madchen oder Weibchen, 1928"
PERFORMER "Heinrich Rehkemper (Baritone)"
INDEX 01 12:34:00
TRACK 05 AUDIO
TITLE "Mozart- The Magic Flute: In diesen heil'gen Hallen, 1927"
PERFORMER "Wilhelm Strienz (Bass)"
INDEX 01 16:49:00
TRACK 06 AUDIO
TITLE "Mozart- The Magic Flute: O Isis und Osiris, 1927"
PERFORMER "Wilhelm Strienz (Bass)"
INDEX 01 21:04:00
TRACK 07 AUDIO
TITLE "Mozart- The Abduction From The Seraglio: Konstanze, dich wiederzusehen, 1935"
PERFORMER "Julius Patzak (Tenor)"
INDEX 01 24:18:00
TRACK 08 AUDIO
TITLE "Millocker- Gasparone: O wenn ich doch ein Rauber war, 1934"
PERFORMER "Julius Patzak (Tenor)"
INDEX 01 28:47:00
TRACK 09 AUDIO
TITLE "Capua- Maria, mari: Schon strahlt die Nacht im Silberschein, 1935"
PERFORMER "Julius Patzak (Tenor)"
INDEX 01 31:32:00
TRACK 10 AUDIO
TITLE "Flotow- Martha: Letzte Rose, 1935"
PERFORMER "Erna Berger (Soprano)"
INDEX 01 35:08:00
TRACK 11 AUDIO
TITLE "Flotow- Martha: Ach so fromm, 1935"
PERFORMER "Helge Rosvaenge (Tenor)"
INDEX 01 38:15:00
TRACK 12 AUDIO
TITLE "Niederberger- Liebe bei Hof: Man nehme zwei Herzen, 1937"
PERFORMER "Leo Slezak (Tenor)"
INDEX 01 41:29:00
TRACK 13 AUDIO
TITLE "Niederberger- Chianti Song: Chianti-Lied, 1941"
PERFORMER "Walther Ludwig (Tenor)"
INDEX 01 45:02:00
TRACK 14 AUDIO
TITLE "Strauss II- Eine Nacht In Venedig: The Gondolier's Song, 1941"
PERFORMER "Walther Ludwig (Tenor)"
INDEX 01 48:10:00
TRACK 15 AUDIO
TITLE "Lehar- The Land Of Smiles: Dein ist mein ganzes Herz, 1938"
PERFORMER "Franz Volker (Tenor)"
INDEX 01 51:25:00
TRACK 16 AUDIO
TITLE "Strauss- Der Rosenkavalier: Hab' mir's gelobt - Ist ein Traum, kann nicht wir..."
PERFORMER "Tiana Lemnitz, Erna Berger, Viorica Ursuleac (Sopranos))"
INDEX 01 54:35:00
TRACK 17 AUDIO
TITLE "Weber- Der Freischutz: Einst traumte meiner sel'gen Base ... Trube, 1942"
PERFORMER "Hilde Gueden (Soprano)"
INDEX 01 64:22:00
TRACK 18 AUDIO
TITLE "Nicolai- Die Lustigen Weiber von Windsor: Als Bublein Klein an der Mutterbrus..."
PERFORMER "Georg Hann (Bass)"
INDEX 01 70:30:00
TRACK 19 AUDIO
TITLE "Strauss- Ariadne auf Naxos: An Ihre Platze, meine Damen und Herrn!, 1944"
PERFORMER "Maria Reining, Irmgard Seefried (Sopranos), Paul Schoffler (Bass-Baritone)"
INDEX 01 73:25:00

CD 4 - Lieder [76:45]

1. Brahms- Feldeinsamkeit Op. 86 Nr. 2 , 1928 (4:18)Leo Slezak (Tenor), Heinrich Schacker (Piano) 2. Wolf- Epiphanias, 1927 (4:44)3. Schumann- Fruhlingsfahrt Op. 45 Nr. 2, 1938 (3:18)4. Auftrage Op. 77 Nr. 5, 1928 (2:19)5. Beethoven- Adelaide Op. 46, 1930 (6:08)6. An die Hoffnung Op. 94, 1938 (7:08)7. Schubert- An Schwager Kronos D369, 1934 (3:04)8. Erlkonig D328, 1932 (4:14)9. Mendelssohn- Auf den Flugeln des Gesanges Op. 34 Nr. 2, 1932 (2:24)Heinrich Schlusnus (Baritone), Franz Rupp (Piano) 10. Schubert- Eifersucht und Stolz (Schones Mullerin D795), 1928 (1:46)Heinrich Rehkemper (Baritone) 11. Liszt- Die drei Zigeuner S320 (Scheidl, Rupp 1930) (4:34)Theodor Scheidl (Baritone), Franz Rupp (Piano) 12. Loewe- Meeresleuchten p. 145 Nr. 1, 1934 (3:23)13. Wolf- Verborgenheit, 1930 (3:15)Josef von Manowarda (Bass), Franz Rupp (Piano) 14. Brahms- Wiegenlied Op. 49 Nr. 4, 1936 (2:05)Erna Berger (Soprano), Hans Altmann (Piano) 15. Strauss- Traum durch die Dammerung Op. 29 Nr. 1, 1939 (2:52)16. Allerseelen Op. 10 Nr. 8, 1934 (3:23)Franz Volker (Tenor), Gerhard Steeger (Piano) 17. Schubert- An die Musik D547, 1941 (3:00)18. Der Musensohn D764, 1941 (2:19)Franz Volker (Tenor), Gustav Grossmann (Piano) 19. Schubert- Am Grabe Anselmos D504, 1937 (3:56)20. Wagner- Traume (Aus Wesendoncklieder), 1937 (4:29)Tiana Lemnitz (Soprano), Michael Raucheisen (Piano) 21. Reger- Des Kindes Gebet (Schlichte Weisen Op 76 Nr. 22), 1939 (2:09)22. Herzenstausch (Schlichte Weisen Op 76 Nr. 5), 1939 (1:57)Walther Ludwig (Tenor), Sebastian Peschko (Piano)

LOG CD4

Exact Audio Copy V1.0 beta 3 from 29. August 2011
EAC extraction logfile from 6. January 2014, 18:52
- / Great Voices of the Early Years - CD 4 - Lieder
Used drive : ATAPI iHAS122 C Adapter: 0 ID: 2
Read mode : Secure
Utilize accurate stream : Yes
Defeat audio cache : Yes
Make use of C2 pointers : No
Read offset correction : 6
Overread into Lead-In and Lead-Out : No
Fill up missing offset samples with silence : Yes
Delete leading and trailing silent blocks : No
Null samples used in CRC calculations : Yes
Used interface : Installed external ASPI interface
Used output format : User Defined Encoder
Selected bitrate : 192 kBit/s
Quality : High
Add ID3 tag : No
Command line compressor : C:\Program Files\Exact Audio Copy\Flac\flac.exe
Additional command line options : -V -8 -T "Date=%year%" -T "Genre=%genre%" %source%
TOC of the extracted CD
Track | Start | Length | Start sector | End sector
---------------------------------------------------------
1 | 0:00.32 | 4:18.00 | 32 | 19381
2 | 4:18.32 | 4:44.00 | 19382 | 40681
3 | 9:02.32 | 3:18.00 | 40682 | 55531
4 | 12:20.32 | 2:19.00 | 55532 | 65956
5 | 14:39.32 | 6:08.00 | 65957 | 93556
6 | 20:47.32 | 7:08.00 | 93557 | 125656
7 | 27:55.32 | 3:04.00 | 125657 | 139456
8 | 30:59.32 | 4:14.00 | 139457 | 158506
9 | 35:13.32 | 2:24.00 | 158507 | 169306
10 | 37:37.32 | 1:46.00 | 169307 | 177256
11 | 39:23.32 | 4:34.00 | 177257 | 197806
12 | 43:57.32 | 3:23.00 | 197807 | 213031
13 | 47:20.32 | 3:15.00 | 213032 | 227656
14 | 50:35.32 | 2:05.00 | 227657 | 237031
15 | 52:40.32 | 2:52.00 | 237032 | 249931
16 | 55:32.32 | 3:23.00 | 249932 | 265156
17 | 58:55.32 | 3:00.00 | 265157 | 278656
18 | 61:55.32 | 2:19.00 | 278657 | 289081
19 | 64:14.32 | 3:56.00 | 289082 | 306781
20 | 68:10.32 | 4:29.00 | 306782 | 326956
21 | 72:39.32 | 2:09.00 | 326957 | 336631
22 | 74:48.32 | 1:57.00 | 336632 | 345406
Range status and errors
Selected range
Filename C:\Program Files\Exact Audio Copy\Flac\Great Voices of the Early Years - CD 4 - Lieder.wav
Peak level 96.7 %
Extraction speed 7.1 X
Range quality 100.0 %
Test CRC 66E5EC7A
Copy CRC 66E5EC7A
Copy OK
No errors occurred
AccurateRip summary
Track 1 accurately ripped (confidence 2) [0B1C6C43] (AR v2)
Track 2 accurately ripped (confidence 2) [9324B9C6] (AR v2)
Track 3 accurately ripped (confidence 2) [71A0C906] (AR v2)
Track 4 accurately ripped (confidence 2) [5CBE673B] (AR v2)
Track 5 accurately ripped (confidence 2) [768AA637] (AR v2)
Track 6 accurately ripped (confidence 2) [76B5213D] (AR v2)
Track 7 accurately ripped (confidence 2) [41B797D2] (AR v2)
Track 8 accurately ripped (confidence 2) [3F01943C] (AR v2)
Track 9 accurately ripped (confidence 2) [30DC7D10] (AR v2)
Track 10 accurately ripped (confidence 2) [FDDCA6F2] (AR v2)
Track 11 accurately ripped (confidence 2) [73D20B16] (AR v2)
Track 12 accurately ripped (confidence 2) [916187E1] (AR v2)
Track 13 accurately ripped (confidence 2) [0CBC2328] (AR v2)
Track 14 accurately ripped (confidence 2) [9EEBF748] (AR v2)
Track 15 accurately ripped (confidence 2) [69BB1EE3] (AR v2)
Track 16 accurately ripped (confidence 2) [E9C0DFCD] (AR v2)
Track 17 accurately ripped (confidence 2) [A2948817] (AR v2)
Track 18 accurately ripped (confidence 2) [8EF853AD] (AR v2)
Track 19 accurately ripped (confidence 2) [D0C7542F] (AR v2)
Track 20 accurately ripped (confidence 2) [B8CDFD70] (AR v2)
Track 21 accurately ripped (confidence 2) [490EA2B8] (AR v2)
Track 22 accurately ripped (confidence 2) [BF6B630B] (AR v2)
All tracks accurately ripped
End of status report
==== Log checksum 924E6C8BEAE9C8FC620CB6CCE46644C2A56ED09DA2768AD434024E16B7BE54B9 ====

CUE CD4

REM GENRE Classical
REM DATE 1998
REM DISCID 4811FD16
REM COMMENT "ExactAudioCopy v1.0b3"
PERFORMER ""
TITLE "Great Voices of the Early Years - CD 4 - Lieder"
FILE "Great Voices of the Early Years - CD 4 - Lieder.flac" WAVE
TRACK 01 AUDIO
TITLE "Brahms- Feldeinsamkeit Op. 86 Nr. 2 , 1928"
PERFORMER "Leo Slezak (Tenor), Heinrich Schacker (Piano)"
INDEX 00 00:00:00
INDEX 01 00:00:32
TRACK 02 AUDIO
TITLE "Wolf- Epiphanias, 1927"
PERFORMER "Heinrich Schlusnus (Baritone), Franz Rupp (Piano)"
INDEX 01 04:18:32
TRACK 03 AUDIO
TITLE "Schumann- Fruhlingsfahrt Op. 45 Nr. 2, 1938"
PERFORMER "Heinrich Schlusnus (Baritone), Franz Rupp (Piano)"
INDEX 01 09:02:32
TRACK 04 AUDIO
TITLE "Schumann- Auftrage Op. 77 Nr. 5, 1928"
PERFORMER "Heinrich Schlusnus (Baritone), Franz Rupp (Piano)"
INDEX 01 12:20:32
TRACK 05 AUDIO
TITLE "Beethoven- Adelaide Op. 46, 1930"
PERFORMER "Heinrich Schlusnus (Baritone), Franz Rupp (Piano)"
INDEX 01 14:39:32
TRACK 06 AUDIO
TITLE "Beethoven- An die Hoffnung Op. 94, 1938"
PERFORMER "Heinrich Schlusnus (Baritone), Franz Rupp (Piano)"
INDEX 01 20:47:32
TRACK 07 AUDIO
TITLE "Schubert- An Schwager Kronos D369, 1934"
PERFORMER "Heinrich Schlusnus (Baritone), Franz Rupp (Piano)"
INDEX 01 27:55:32
TRACK 08 AUDIO
TITLE "Schubert- Erlkonig D328, 1932"
PERFORMER "Heinrich Schlusnus (Baritone), Franz Rupp (Piano)"
INDEX 01 30:59:32
TRACK 09 AUDIO
TITLE "Mendelssohn- Auf den Flugeln des Gesanges Op. 34 Nr. 2, 1932"
PERFORMER "Heinrich Schlusnus (Baritone), Franz Rupp (Piano)"
INDEX 01 35:13:32
TRACK 10 AUDIO
TITLE "Schubert- Eifersucht und Stolz (Schones Mullerin D795), 1928"
PERFORMER "Heinrich Rehkemper (Baritone)"
INDEX 01 37:37:32
TRACK 11 AUDIO
TITLE "Liszt- Die drei Zigeuner S320_ (Scheidl, Rupp 1930)"
PERFORMER "Theodor Scheidl (Baritone), Franz Rupp (Piano)"
INDEX 01 39:23:32
TRACK 12 AUDIO
TITLE "Loewe- Meeresleuchten p. 145 Nr. 1, 1934"
PERFORMER "Josef von Manowarda (Bass), Franz Rupp (Piano)"
INDEX 01 43:57:32
TRACK 13 AUDIO
TITLE "Wolf- Verborgenheit, 1930"
PERFORMER "Josef von Manowarda (Bass), Arpad Sandor (Piano)"
INDEX 01 47:20:32
TRACK 14 AUDIO
TITLE "Brahms- Wiegenlied Op. 49 Nr. 4, 1936"
PERFORMER "Erna Berger (Soprano), Hans Altmann (Piano)"
INDEX 01 50:35:32
TRACK 15 AUDIO
TITLE "Strauss- Traum durch die Dammerung Op. 29 Nr. 1, 1939"
PERFORMER "Franz Volker (Tenor), Gerhard Steeger (Piano)"
INDEX 01 52:40:32
TRACK 16 AUDIO
TITLE "Strauss- Allerseelen Op. 10 Nr. 8, 1934"
PERFORMER "Franz Volker (Tenor), Franz Rupp (Piano)"
INDEX 01 55:32:32
TRACK 17 AUDIO
TITLE "Schubert- An die Musik D547, 1941"
PERFORMER "Franz Volker (Tenor), Gustav Grossmann (Piano)"
INDEX 01 58:55:32
TRACK 18 AUDIO
TITLE "Schubert- Der Musensohn D764, 1941"
PERFORMER "Franz Volker (Tenor), Gustav Grossmann (Piano)"
INDEX 01 61:55:32
TRACK 19 AUDIO
TITLE "Schubert- Am Grabe Anselmos D504, 1937"
PERFORMER "Tiana Lemnitz (Soprano), Michael Raucheisen (Piano)"
INDEX 01 64:14:32
TRACK 20 AUDIO
TITLE "Wagner- Traume (Aus Wesendoncklieder), 1937"
PERFORMER "Tiana Lemnitz (Soprano), Michael Raucheisen (Piano)"
INDEX 01 68:10:32
TRACK 21 AUDIO
TITLE "Reger- Des Kindes Gebet (Schlichte Weisen Op 76 Nr. 22), 1939"
PERFORMER "Walther Ludwig (Tenor ), Sebastian Peschko (Piano)"
INDEX 01 72:39:32
TRACK 22 AUDIO
TITLE "Reger- Herzenstausch (Schlichte Weisen Op 76 Nr. 5), 1939"
PERFORMER "Walther Ludwig (Tenor ), Sebastian Peschko (Piano)"
INDEX 01 74:48:32

CD 5 - Schubert- Die Winterreise, D 911 [73:16]

1. Book I, Gute Nacht ('Fremd bin ich eingezogen') (5:38)2. Die Wetterfahne ('Der Wind spielt mit der Wetterfane') (1:50)3. Nicht zu langsam ('Gefror'ne Tropfen fallen') (3:03)4. Erstarrung ('Ich such' im Schnee vergebens') (2:54)5. Der Lindenbaum ('Am Brunnen vor dem Tore') (4:30)6. Wasserflut ('Manche Thran' aus meinen Augen') (3:51)7. Auf Dem Flusse ('Der du so lustig rauschtest') (4:03)8. Ruckblick ('Es brennt mir unter beiden Sohlen') (2:28)9. Irrlicht ('In die tiefsten Felsengrunde') (2:46)10. Rast ('Mun merk' ich erst, wie mud' ich bin') (3:34)11. Fruhlingstraum ('Ich traumte von bunten Blumen') (4:36)12. Einsamkeit ('Wie eine trube Wolke') (2:43)13. Book II, Die Post ('Von der Strasse her ein Posthorn klingt') (2:37)14. Der Greise Kopf ('Der Reif hat einen weissen Schein') (2:57)15. Die Krahe ('Eine Drahe war mit mir') (2:06)16. Letzte Hoffnung ('Hie und da ist an den Baumen') (2:34)17. Im Dorfe ('Es bellen die Hunde, es rasseln die Ketten') (2:58)18. Der Strumische Morgen ('Wie hat der Sturm zerrissen') (1:01)19. Tauschung ('Ein Licht tanzt freundlich vor mir her') (1:36)20. Der Wegweiser ('Was vermeid' ich denn die Wege') (4:04)21. Das Wirtshaus ('Auf einen Totenacker') (4:10)22. Mut ('Fliegt der Schnee mir in's Cesicht') (1:29)23. Die Nebensonnen ('Drei Sonnen sah ich am Himmel steh'n') (2:29)24. Der Leiermann ('Druben hinterm Dorfe steht ein Leitermann') (3:19)Peter Anders (Tenor), Michael Raucheisen (Piano)

LOG CD5

Exact Audio Copy V1.0 beta 3 from 29. August 2011
EAC extraction logfile from 6. January 2014, 19:13
Peter Anders (Tenor), Michael Raucheisen (Piano) / Great Voices of the Early Years - CD 5 - Schubert- Die Winterreise, D 911
Used drive : ATAPI iHAS122 C Adapter: 0 ID: 2
Read mode : Secure
Utilize accurate stream : Yes
Defeat audio cache : Yes
Make use of C2 pointers : No
Read offset correction : 6
Overread into Lead-In and Lead-Out : No
Fill up missing offset samples with silence : Yes
Delete leading and trailing silent blocks : No
Null samples used in CRC calculations : Yes
Used interface : Installed external ASPI interface
Used output format : User Defined Encoder
Selected bitrate : 192 kBit/s
Quality : High
Add ID3 tag : No
Command line compressor : C:\Program Files\Exact Audio Copy\Flac\flac.exe
Additional command line options : -V -8 -T "Date=%year%" -T "Genre=%genre%" %source%
TOC of the extracted CD
Track | Start | Length | Start sector | End sector
---------------------------------------------------------
1 | 0:00.00 | 5:38.00 | 0 | 25349
2 | 5:38.00 | 1:50.00 | 25350 | 33599
3 | 7:28.00 | 3:03.00 | 33600 | 47324
4 | 10:31.00 | 2:54.00 | 47325 | 60374
5 | 13:25.00 | 4:30.00 | 60375 | 80624
6 | 17:55.00 | 3:51.00 | 80625 | 97949
7 | 21:46.00 | 4:03.00 | 97950 | 116174
8 | 25:49.00 | 2:28.00 | 116175 | 127274
9 | 28:17.00 | 2:46.00 | 127275 | 139724
10 | 31:03.00 | 3:34.00 | 139725 | 155774
11 | 34:37.00 | 4:36.00 | 155775 | 176474
12 | 39:13.00 | 2:43.00 | 176475 | 188699
13 | 41:56.00 | 2:37.00 | 188700 | 200474
14 | 44:33.00 | 2:57.00 | 200475 | 213749
15 | 47:30.00 | 2:06.00 | 213750 | 223199
16 | 49:36.00 | 2:34.00 | 223200 | 234749
17 | 52:10.00 | 2:58.00 | 234750 | 248099
18 | 55:08.00 | 1:01.00 | 248100 | 252674
19 | 56:09.00 | 1:36.00 | 252675 | 259874
20 | 57:45.00 | 4:04.00 | 259875 | 278174
21 | 61:49.00 | 4:10.00 | 278175 | 296924
22 | 65:59.00 | 1:29.00 | 296925 | 303599
23 | 67:28.00 | 2:29.00 | 303600 | 314774
24 | 69:57.00 | 3:19.00 | 314775 | 329699
Range status and errors
Selected range
Filename C:\Program Files\Exact Audio Copy\Flac\Great Voices of the Early Years - CD 5 - Schubert- Die Winterreise, D 911.wav
Peak level 94.5 %
Extraction speed 10.2 X
Range quality 99.9 %
Test CRC C642EF51
Copy CRC C642EF51
Copy OK
No errors occurred
AccurateRip summary
Track 1 accurately ripped (confidence 4) [422968A4] (AR v2)
Track 2 accurately ripped (confidence 4) [208AC3C4] (AR v2)
Track 3 accurately ripped (confidence 4) [C71ACD25] (AR v2)
Track 4 accurately ripped (confidence 4) [E3D9AD34] (AR v2)
Track 5 accurately ripped (confidence 4) [F5C3F6AC] (AR v2)
Track 6 accurately ripped (confidence 4) [DCC6B7EE] (AR v2)
Track 7 accurately ripped (confidence 4) [7985003C] (AR v2)
Track 8 accurately ripped (confidence 4) [E5AE89E5] (AR v2)
Track 9 accurately ripped (confidence 4) [0B573440] (AR v2)
Track 10 accurately ripped (confidence 4) [736852D3] (AR v2)
Track 11 accurately ripped (confidence 4) [E1ED620C] (AR v2)
Track 12 accurately ripped (confidence 4) [D2927E64] (AR v2)
Track 13 accurately ripped (confidence 4) [9F5826F7] (AR v2)
Track 14 accurately ripped (confidence 4) [3B27FEA8] (AR v2)
Track 15 accurately ripped (confidence 4) [BC7136BD] (AR v2)
Track 16 accurately ripped (confidence 4) [B8387C73] (AR v2)
Track 17 accurately ripped (confidence 4) [2F0CA28E] (AR v2)
Track 18 accurately ripped (confidence 4) [80620911] (AR v2)
Track 19 accurately ripped (confidence 4) [807FC9C4] (AR v2)
Track 20 accurately ripped (confidence 4) [7ADF954D] (AR v2)
Track 21 accurately ripped (confidence 4) [12DF1A57] (AR v2)
Track 22 accurately ripped (confidence 4) [EEC34D44] (AR v2)
Track 23 accurately ripped (confidence 4) [3F94AC37] (AR v2)
Track 24 accurately ripped (confidence 4) [5C4C4792] (AR v2)
All tracks accurately ripped
End of status report
==== Log checksum 4BB4F0B493C7245A2583049F808FEC1977DE9E02312794CD08317342E71A96B5 ====

CUE CD5

REM GENRE Vocal
REM DATE 1998
REM DISCID 63112C18
REM COMMENT "ExactAudioCopy v1.0b3"
PERFORMER "Peter Anders (Tenor), Michael Raucheisen (Piano)"
TITLE "Great Voices of the Early Years - CD 5 - Schubert- Die Winterreise, D 911"
FILE "Great Voices of the Early Years - CD 5 - Schubert- Die Winterreise, D 911.flac" WAVE
TRACK 01 AUDIO
TITLE "Book I, Gute Nacht ('Fremd bin ich eingezogen')"
PERFORMER "Peter Anders (Tenor), Michael Raucheisen (Piano)"
INDEX 01 00:00:00
TRACK 02 AUDIO
TITLE "Die Wetterfahne ('Der Wind spielt mit der Wetterfane')"
PERFORMER "Peter Anders (Tenor), Michael Raucheisen (Piano)"
INDEX 01 05:38:00
TRACK 03 AUDIO
TITLE "Nicht zu langsam ('Gefror'ne Tropfen fallen')"
PERFORMER "Peter Anders (Tenor), Michael Raucheisen (Piano)"
INDEX 01 07:28:00
TRACK 04 AUDIO
TITLE "Erstarrung ('Ich such' im Schnee vergebens')"
PERFORMER "Peter Anders (Tenor), Michael Raucheisen (Piano)"
INDEX 01 10:31:00
TRACK 05 AUDIO
TITLE "Der Lindenbaum ('Am Brunnen vor dem Tore')"
PERFORMER "Peter Anders (Tenor), Michael Raucheisen (Piano)"
INDEX 01 13:25:00
TRACK 06 AUDIO
TITLE "Wasserflut ('Manche Thran' aus meinen Augen')"
PERFORMER "Peter Anders (Tenor), Michael Raucheisen (Piano)"
INDEX 01 17:55:00
TRACK 07 AUDIO
TITLE "Auf Dem Flusse ('Der du so lustig rauschtest')"
PERFORMER "Peter Anders (Tenor), Michael Raucheisen (Piano)"
INDEX 01 21:46:00
TRACK 08 AUDIO
TITLE "Ruckblick ('Es brennt mir unter beiden Sohlen')"
PERFORMER "Peter Anders (Tenor), Michael Raucheisen (Piano)"
INDEX 01 25:49:00
TRACK 09 AUDIO
TITLE "Irrlicht ('In die tiefsten Felsengrunde')"
PERFORMER "Peter Anders (Tenor), Michael Raucheisen (Piano)"
INDEX 01 28:17:00
TRACK 10 AUDIO
TITLE "Rast ('Mun merk' ich erst, wie mud' ich bin')"
PERFORMER "Peter Anders (Tenor), Michael Raucheisen (Piano)"
INDEX 01 31:03:00
TRACK 11 AUDIO
TITLE "Fruhlingstraum ('Ich traumte von bunten Blumen')"
PERFORMER "Peter Anders (Tenor), Michael Raucheisen (Piano)"
INDEX 01 34:37:00
TRACK 12 AUDIO
TITLE "Einsamkeit ('Wie eine trube Wolke')"
PERFORMER "Peter Anders (Tenor), Michael Raucheisen (Piano)"
INDEX 01 39:13:00
TRACK 13 AUDIO
TITLE "Book II, Die Post ('Von der Strasse her ein Posthorn klingt')"
PERFORMER "Peter Anders (Tenor), Michael Raucheisen (Piano)"
INDEX 01 41:56:00
TRACK 14 AUDIO
TITLE "Book II, Der Greise Kopf ('Der Reif hat einen weissen Schein')"
PERFORMER "Peter Anders (Tenor), Michael Raucheisen (Piano)"
INDEX 01 44:33:00
TRACK 15 AUDIO
TITLE "Die Krahe ('Eine Drahe war mit mir')"
PERFORMER "Peter Anders (Tenor), Michael Raucheisen (Piano)"
INDEX 01 47:30:00
TRACK 16 AUDIO
TITLE "Letzte Hoffnung ('Hie und da ist an den Baumen')"
PERFORMER "Peter Anders (Tenor), Michael Raucheisen (Piano)"
INDEX 01 49:36:00
TRACK 17 AUDIO
TITLE "Im Dorfe ('Es bellen die Hunde, es rasseln die Ketten')"
PERFORMER "Peter Anders (Tenor), Michael Raucheisen (Piano)"
INDEX 01 52:10:00
TRACK 18 AUDIO
TITLE "Der Strumische Morgen ('Wie hat der Sturm zerrissen')"
PERFORMER "Peter Anders (Tenor), Michael Raucheisen (Piano)"
INDEX 01 55:08:00
TRACK 19 AUDIO
TITLE "Tauschung ('Ein Licht tanzt freundlich vor mir her')"
PERFORMER "Peter Anders (Tenor), Michael Raucheisen (Piano)"
INDEX 01 56:09:00
TRACK 20 AUDIO
TITLE "Der Wegweiser ('Was vermeid' ich denn die Wege')"
PERFORMER "Peter Anders (Tenor), Michael Raucheisen (Piano)"
INDEX 01 57:45:00
TRACK 21 AUDIO
TITLE "Das Wirtshaus ('Auf einen Totenacker')"
PERFORMER "Peter Anders (Tenor), Michael Raucheisen (Piano)"
INDEX 01 61:49:00
TRACK 22 AUDIO
TITLE "Mut ('Fliegt der Schnee mir in's Cesicht')"
PERFORMER "Peter Anders (Tenor), Michael Raucheisen (Piano)"
INDEX 01 65:59:00
TRACK 23 AUDIO
TITLE "Die Nebensonnen ('Drei Sonnen sah ich am Himmel steh'n')"
PERFORMER "Peter Anders (Tenor), Michael Raucheisen (Piano)"
INDEX 01 67:28:00
TRACK 24 AUDIO
TITLE "Der Leiermann ('Druben hinterm Dorfe steht ein Leitermann')"
PERFORMER "Peter Anders (Tenor), Michael Raucheisen (Piano)"
INDEX 01 69:57:00



Показать сообщения:    

Текущее время: 03-Дек 05:25

Часовой пояс: UTC + 3


Вы не можете начинать темы
Вы не можете отвечать на сообщения
Вы не можете редактировать свои сообщения
Вы не можете удалять свои сообщения
Вы не можете голосовать в опросах
Вы не можете прикреплять файлы к сообщениям
Вы не можете скачивать файлы