(Baroque/Oratorio) J.A.Hasse - Sanctus Petrus et Sancta Maria Magdalena (Kirsten Blaise, Heidrun Kordes, Vivica Genaux, Terry Wey, Jacek Laszczkowski, Michael Hofstetter) - 2010, APE (image+.cue) lossless


 

[Цитировать]

Johann Adolf Hasse (1699-1783)
Sanctus Petrus et Sancta Maria Magdalena

Oratorio, Isagoge ad Psalmum "Miserere"
Жанр: Baroque/Oratorio
Страна-производитель диска: EU
Год издания диска: 2010
Издатель (лейбл): OehmsClassics Musikproduktion GmbH
Номер по каталогу: OC 950
Дата записи: 2008
Аудиокодек: APE
Тип рипа: image+.cue
Битрейт аудио: lossless
Продолжительность: 77'
Источник: скачано из сети
Наличие сканов в содержимом раздачи: да
Исполнители:
Kirsten Blaise, soprano .... S.Maria Magdalena
Heidrun Kordes, soprano .... Maria Iacobi
Vivica Genaux, mezzosoprano .... Maria Salome
Terry Wey, alto .... S.Petrus
Jacek Laszczkowski, soprano .... Joseph d'Arimatea
Chor und Orchester der Ludwigsburger Schlossfestspiele
Michael Hofstetter, conductor

Треклист

01 Sinfonia e Recitativo
02 Aria: Crucifixum si videres
03 Recitativo: Siste, o Petre!
04 Aria: Mea tormenta, properate!
05 Recitativo: Petre, extolle parumper dejectam faciem tuam!
06 Terzetto: Amor meus in cruce languet
07 Recitativo: Piae mulieres cessate
08 Aria: Si Deo dilectae tantum ploratis
09 Recitativo: Stillate, amarae lacrimae, pectus meum irrigate!
10 Duetto: Jesu, mea pax, mea vita
11 Recitativo: Ineffabile, excelsum, tremendum sacrificium in Golgatha
12 Aria: O portenta aeterni amoris
13 Recitativo: Vadam, sed sacri horroris motus iam sentio in me
14 Aria: Semper fida, o mea pupilla
15 Recitativo: Ah, tu siles, o Petre!
16 Miserere mei Deus
17 Ecce enim
18 Tunc acceptabis sacrificium

Лог создания рипа

Exact Audio Copy V0.99 prebeta 4 from 23. January 2008
Отчёт EAC об извлечении, выполненном 9. февраля 2011, 21:05
Chor und Orchester der Ludwigsburger Schlossfestspiele / J. A. Hasse - Sanctus Petrus et Sancta Maria Magdalena
Дисковод: Optiarc DVD RW AD-7200S Adapter: 0 ID: 0
Режим чтения : ДостоверностьИспользование точного потока : ДаОтключение кэша аудио : ДаИспользование указателей C2 : Нет
Коррекция смещения при чтении : 48Способность читать области Lead-in и Lead-out : НетЗаполнение пропущенных сэмплов тишиной : ДаУдаление блоков с тишиной в начале и конце : НетПри вычислениях CRC использовались нулевые сэмплы : ДаИнтерфейс : Установленный внешний ASPI-интерфейс
Выходной формат : Внутренние WAV-операцииФормат сэмплов : 44.100 Гц; 16 бит; стереоСмещение при сжатии : 0
TOC извлечённого CD
Трек | Старт | Длительность | Начальный сектор | Конечный сектор --------------------------------------------------------------------- 1 | 0:00.00 | 7:47.44 | 0 | 35068 2 | 7:47.44 | 5:06.09 | 35069 | 58027 3 | 12:53.53 | 0:45.31 | 58028 | 61433 4 | 13:39.09 | 7:08.63 | 61434 | 93596 5 | 20:47.72 | 0:45.50 | 93597 | 97021 6 | 21:33.47 | 4:17.34 | 97022 | 116330 7 | 25:51.06 | 4:35.00 | 116331 | 136955 8 | 30:26.06 | 6:32.14 | 136956 | 166369 9 | 36:58.20 | 0:36.71 | 166370 | 169140 10 | 37:35.16 | 5:51.09 | 169141 | 195474 11 | 43:26.25 | 1:20.56 | 195475 | 201530 12 | 44:47.06 | 7:48.27 | 201531 | 236657 13 | 52:35.33 | 1:12.58 | 236658 | 242115 14 | 53:48.16 | 5:50.09 | 242116 | 268374 15 | 59:38.25 | 1:33.02 | 268375 | 275351 16 | 61:11.27 | 5:21.19 | 275352 | 299445 17 | 66:32.46 | 7:31.15 | 299446 | 333285 18 | 74:03.61 | 3:34.66 | 333286 | 349401
Характеристики диапазона извлечения и сообщения об ошибках
Выбранный диапазон
Имя файла Hasse - Sanctus Petrus et Sancta Maria Magdalena.wav
Пиковый уровень 98.0 % Качество диапазона 100.0 % CRC теста 5CB27773 CRC копии 5CB27773 Копирование... OK
Ошибок не произошло
AccurateRip: сводка
Трек 1 точное извлечение (доверие 1) [CC13F2B8]Трек 2 точное извлечение (доверие 1) [DB4405FE]Трек 3 точное извлечение (доверие 1) [2F77E679]Трек 4 точное извлечение (доверие 1) [7DA1A81E]Трек 5 точное извлечение (доверие 1) [991F755E]Трек 6 точное извлечение (доверие 1) [CAFDB6DC]Трек 7 точное извлечение (доверие 1) [2596B595]Трек 8 точное извлечение (доверие 1) [B227640A]Трек 9 точное извлечение (доверие 1) [4B284AF7]Трек 10 точное извлечение (доверие 1) [0727A351]Трек 11 точное извлечение (доверие 1) [AFABA9B4]Трек 12 точное извлечение (доверие 1) [954BBA34]Трек 13 точное извлечение (доверие 1) [E4FE5576]Трек 14 точное извлечение (доверие 1) [6DC2CA60]Трек 15 точное извлечение (доверие 1) [327276E3]Трек 16 точное извлечение (доверие 1) [CE473479]Трек 17 точное извлечение (доверие 1) [A87472C2]Трек 18 точное извлечение (доверие 1) [7845AF5B]
Все треки извлечены точно
Конец отчёта

Внимание! .cue рассчитан на .ape (понимает KMPlayer - открываете им .cue через контекстное меню). Если это не подходит, Вы можете открыть .cue Блокнотом (это текстовый файл) и поменять название .ape на то, во что Вы желаете его превратить.



Показать сообщения:    

Текущее время: 09-Дек 14:36

Часовой пояс: UTC + 3


Вы не можете начинать темы
Вы не можете отвечать на сообщения
Вы не можете редактировать свои сообщения
Вы не можете удалять свои сообщения
Вы не можете голосовать в опросах
Вы не можете прикреплять файлы к сообщениям
Вы не можете скачивать файлы