(Classical) Music for the Six Wives of Henry VIII / Музыка для шести жён Генриха VIII - 2002, FLAC (image+.cue) lossless


 

[Цитировать]

Музыка для шести жён Генриха VIII
Жанр: Classical
Страна-производитель диска: Britain
Год издания диска: 2002
Издатель (лейбл): Classical Communications Ltd
Номер по каталогу: CDG1010
Аудиокодек: FLAC
Тип рипа: image+.cue
Битрейт аудио: lossless
Продолжительность: 62:32
Источник: собственный рип
Наличие сканов в содержимом раздачи: да
Spanish, French, Italian and English music - including many pieces by Henry VIII himself - in a programme designed to reflect the tastes and characters of Henry's wives. Cheerful songs, dances and reflective pieces give an impression of court life and the music that was made and composed there. Many of the pieces are taken from a manuscript which was written during the reign of Henry VIII and which contains many of the King's own compositions.
Треклист:
Catherine of Aragon
1. Riu riu: el lobo rabioso Anon
2. Dezi, flor rresplandeciente Anon
3. La Manana de San Juan Anon
4. Consort Henry VIII
Anne Boleyn
5. Helas Madame Henry VIII
6. Amy souffrez Isaac
7. And I were a mayden Henry VIII
8. Consort Henry VIII
Jane Seymour
9. Pastime with good company Henry VIII
10. Greensleeves Henry VIII
11. Quene Note Anon
12. Consort Henry VIII
Anne of Cleves
13. Danse de Cleves Anon
14. Scopri lingua Tromboncino
15. Nec michi nec tibi Obrecht
16. Consort Henry VIII
Catherine Howard
17. Green groweth the holly Henry VIII
18. Le pied de cheval (Horses Brawl) Anon
19. Blow thy horn hunter Cornish
20. Consort Henry VIII
Catherine Parr
21. Fantasia VIII Milan
22. Wolsey's Wilde Anon
23. Westron Wind Anon
24. Consort Henry VIII
Композитор Генрих VIII
Исполнители:
Sara Stowe - soprano
Matthew Spring - vihuela, guitar, viol, lute, hurdy-gurdy
Jon Banks - harp, recorder, drums, guitar, gittern
Martin Souter - clavichord

Лог создания рипа

Exact Audio Copy V1.0 beta 3 from 29. August 2011
Отчёт EAC об извлечении, выполненном 19. октября 2013, 4:41
Unknown Artist / Six Wives of Henry VIII
Дисковод: HL-DT-STDVDRAM GH60N Adapter: 2 ID: 1
Режим чтения : ДостоверностьИспользование точного потока : ДаОтключение кэша аудио : ДаИспользование указателей C2 : Нет
Коррекция смещения при чтении : 667Способность читать области Lead-in и Lead-out : НетЗаполнение пропущенных сэмплов тишиной : ДаУдаление блоков с тишиной в начале и конце : НетПри вычислениях CRC использовались нулевые сэмплы : ДаИнтерфейс : Встроенный Win32-интерфейс для Win NT/2000
Выходной формат : Пользовательский кодировщикВыбранный битрейт : 896 kBit/sКачество : ВысокийДобавление ID3-тега : НетУтилита сжатия : C:\Program Files\Exact Audio Copy\FLAC\FLAC.EXEДополнительные параметры : -6 -V -T "ARTIST=%artist%" -T "TITLE=%title%" -T "ALBUM=%albumtitle%" -T "DATE=%year%" -T "TRACKNUMBER=%tracknr%" -T "GENRE=%genre%" -T "COMMENT=%comment%" -T "BAND=%albuminterpret%" -T "ALBUMARTIST=%albuminterpret%" -T "COMPOSER=%composer%" %haslyrics%--tag-from-file=LYRICS="%lyricsfile%"%haslyrics% -T "DISCNUMBER=%cdnumber%" -T "TOTALDISCS=%totalcds%" -T "TOTALTRACKS=%numtracks%" %hascover%--picture="%coverfile%"%hascover% %source% -o %dest%
TOC извлечённого CD
Трек | Старт | Длительность | Начальный сектор | Конечный сектор --------------------------------------------------------------------- 1 | 0:00.00 | 1:54.62 | 0 | 8611 2 | 1:54.62 | 2:05.65 | 8612 | 18051 3 | 4:00.52 | 4:01.36 | 18052 | 36162 4 | 8:02.13 | 0:49.52 | 36163 | 39889 5 | 8:51.65 | 2:11.38 | 39890 | 49752 6 | 11:03.28 | 5:40.01 | 49753 | 75253 7 | 16:43.29 | 1:58.54 | 75254 | 84157 8 | 18:42.08 | 2:38.14 | 84158 | 96021 9 | 21:20.22 | 1:33.05 | 96022 | 103001 10 | 22:53.27 | 2:03.36 | 103002 | 112262 11 | 24:56.63 | 2:39.27 | 112263 | 124214 12 | 27:36.15 | 3:47.03 | 124215 | 141242 13 | 31:23.18 | 1:59.43 | 141243 | 150210 14 | 33:22.61 | 3:16.28 | 150211 | 164938 15 | 36:39.14 | 2:05.71 | 164939 | 174384 16 | 38:45.10 | 2:44.34 | 174385 | 186718 17 | 41:29.44 | 2:59.33 | 186719 | 200176 18 | 44:29.02 | 2:44.35 | 200177 | 212511 19 | 47:13.37 | 1:53.54 | 212512 | 221040 20 | 49:07.16 | 2:25.29 | 221041 | 231944 21 | 51:32.45 | 2:31.27 | 231945 | 243296 22 | 54:03.72 | 2:49.25 | 243297 | 255996 23 | 56:53.22 | 4:37.04 | 255997 | 276775 24 | 61:30.26 | 1:50.11 | 276776 | 285036
Характеристики диапазона извлечения и сообщения об ошибках
Выбранный диапазон
Имя файла D:\Music for the Six Wives of Henry VIII\Unknown Artist - Six Wives of Henry VIII.wav
Пиковый уровень 97.9 % Скорость извлечения 29.1 X Качество диапазона 100.0 % CRC теста 2E42AF4B CRC копии 2E42AF4B Копирование... OK
Ошибок не произошло
Конец отчёта

Содержание индексной карты (.CUE)

REM DISCID 4C0ED818REM COMMENT "ExactAudioCopy v1.0b3"PERFORMER "Unknown Artist"TITLE "Six Wives of Henry VIII"FILE "Unknown Artist - Six Wives of Henry VIII.flac" WAVE TRACK 01 AUDIO TITLE "Трек01" PERFORMER "Unknown Artist" INDEX 01 00:00:00 TRACK 02 AUDIO TITLE "Трек02" PERFORMER "Unknown Artist" INDEX 00 01:49:05 INDEX 01 01:54:62 TRACK 03 AUDIO TITLE "Трек03" PERFORMER "Unknown Artist" INDEX 00 03:54:69 INDEX 01 04:00:52 TRACK 04 AUDIO TITLE "Трек04" PERFORMER "Unknown Artist" INDEX 00 07:56:31 INDEX 01 08:02:13 TRACK 05 AUDIO TITLE "Трек05" PERFORMER "Unknown Artist" INDEX 00 08:46:08 INDEX 01 08:51:65 TRACK 06 AUDIO TITLE "Трек06" PERFORMER "Unknown Artist" INDEX 00 10:57:45 INDEX 01 11:03:28 TRACK 07 AUDIO TITLE "Трек07" PERFORMER "Unknown Artist" INDEX 00 16:37:47 INDEX 01 16:43:29 TRACK 08 AUDIO TITLE "Трек08" PERFORMER "Unknown Artist" INDEX 00 18:36:08 INDEX 01 18:42:08 TRACK 09 AUDIO TITLE "Трек09" PERFORMER "Unknown Artist" INDEX 00 21:14:39 INDEX 01 21:20:22 TRACK 10 AUDIO TITLE "Трек10" PERFORMER "Unknown Artist" INDEX 00 22:47:45 INDEX 01 22:53:27 TRACK 11 AUDIO TITLE "Трек11" PERFORMER "Unknown Artist" INDEX 00 24:51:05 INDEX 01 24:56:63 TRACK 12 AUDIO TITLE "Трек12" PERFORMER "Unknown Artist" INDEX 00 27:30:33 INDEX 01 27:36:15 TRACK 13 AUDIO TITLE "Трек13" PERFORMER "Unknown Artist" INDEX 00 31:17:36 INDEX 01 31:23:18 TRACK 14 AUDIO TITLE "Трек14" PERFORMER "Unknown Artist" INDEX 00 33:17:03 INDEX 01 33:22:61 TRACK 15 AUDIO TITLE "Трек15" PERFORMER "Unknown Artist" INDEX 00 36:33:32 INDEX 01 36:39:14 TRACK 16 AUDIO TITLE "Трек16" PERFORMER "Unknown Artist" INDEX 00 38:39:26 INDEX 01 38:45:10 TRACK 17 AUDIO TITLE "Трек17" PERFORMER "Unknown Artist" INDEX 00 41:23:62 INDEX 01 41:29:44 TRACK 18 AUDIO TITLE "Трек18" PERFORMER "Unknown Artist" INDEX 00 44:23:21 INDEX 01 44:29:02 TRACK 19 AUDIO TITLE "Трек19" PERFORMER "Unknown Artist" INDEX 00 47:07:54 INDEX 01 47:13:37 TRACK 20 AUDIO TITLE "Трек20" PERFORMER "Unknown Artist" INDEX 00 49:01:34 INDEX 01 49:07:16 TRACK 21 AUDIO TITLE "Трек21" PERFORMER "Unknown Artist" INDEX 00 51:26:62 INDEX 01 51:32:45 TRACK 22 AUDIO TITLE "Трек22" PERFORMER "Unknown Artist" INDEX 00 53:58:15 INDEX 01 54:03:72 TRACK 23 AUDIO TITLE "Трек23" PERFORMER "Unknown Artist" INDEX 00 56:47:40 INDEX 01 56:53:22 TRACK 24 AUDIO TITLE "Трек24" PERFORMER "Unknown Artist" INDEX 00 61:24:44 INDEX 01 61:30:26

Буклет

Дополнительная информация

Henry VIII's turbulent loves and life are famous. It is not so often remembered, however, that court life had its own rhythms and occasionswhich continued throughout all the confusion and turmoil of the King's personal problems. Music was a major feature of that court life, and thisincluded marvellous, soaring choral music to match the superb ecclesiastical buildings that Henry VIII built or worshipped in. But court life alsoincluded more secular, domestic music-making in which the king himself took an important part. He was an accomplished composer, as theworks on this album will show, and it is clear that he liked music, and that it was one of his many accomplishments as one of the most culturedand intellectually gifted monarchs that the English throne has ever seen.This album assembles music from Henry's court, primarily taking it from a manuscript which was created in the early years of his reign. Thishand-written book assembled many pieces of music which would have been heard in the court, including those composed by the King himself.The emphasis is French, and, on the whole, a conservative musical style. Many of the pieces are exceptionally beautiful, and it is easy toimagine them being played in the grand setting of Hampton court or one of the other royal palaces.The pieces on this album have been grouped together here to represent each of Henry's wives - hence the distinctly Spanish style of theopening few tracks, which are for Catherine of Aragon. Each section of music ends with a quiet, gentle piece (a 'Consort'), written by Henry,and which are dotted about throughout the manuscript. Anne Boleyn was educated in France, so the pieces for her are French in style. Helasmadame is a love song by Henry. And I were a mayden reflects her youth when she became Queen. Pastime with good company, which wehave placed with Jane Seymour, is probably Henry's most famous composition, along with Greensleeves, a beautiful melody which is oftenattributed to the king's pen. Anne of Cleves has her European dance, and a Flemish song from Obrecht, one of the greatest Europeancomposers of the time.Catherine Howard's music is more rustic, with echoes of the countryside and the royal ritual of hunting. Le pied de cheval is from an Englishmanuscript, despite its French title, and is sometimes known as the Horse's Brawl. Catherine Parr's music features some traditional Englishtunes and a beautiful Italian fantasia, first published in 1536, which Henry may have played to her.This fantasia is played here on a vihuela. This instrument belong to the same family as the guitar, the lute and the gittern, all of which areplucked instruments. The viol is similar to the modern cello. The hurdy-gurdy is a superbly robust instrument. Its drones are created by spinninga wheel against a set of strings and it plays melodies via a small keyboard for the player's left hand. The clavichord is one of the earliest typesof keyboard instrument. Small metal tangents on the ends of its keys hit the strings and make quiet, gentle sounds. Its volume level is slightlyincreased on this recording to balance the other instruments, but in reality it would be a lot quieter.



Показать сообщения:    

Текущее время: 10-Дек 23:33

Часовой пояс: UTC + 3


Вы не можете начинать темы
Вы не можете отвечать на сообщения
Вы не можете редактировать свои сообщения
Вы не можете удалять свои сообщения
Вы не можете голосовать в опросах
Вы не можете прикреплять файлы к сообщениям
Вы не можете скачивать файлы