(Medieval) Duo Trobairitz - The Language of Love (Gaucelm Faidit, Bernart de Ventadorn, Colin Muset, Guiraut de Bornelh) - 2007, APE (image+.cue) lossless


 

[Цитировать]

Duo Trobairitz - The Language of Love
Жанр: Medieval
Страна-производитель диска: England
Год издания диска: 2007
Издатель (лейбл): Hyperion
Номер по каталогу: CDA67634
Дата записи: 2005
Аудиокодек: APE
Тип рипа: image+.cue
Битрейт аудио: lossless
Продолжительность: 01:04:54
Источник: скачано с avaxhome
Наличие сканов в содержимом раздачи: да
Треклист:
01 Anonymous: Por coi me bait mes maris? 2:24
02 Anonymous: Dansse Real 3:05
03 Gaucelm Faidit: Lo rossinholet salvatge 9:51
04 Anonymous: La Tierche Estampie Roial 3:09
05 Anonymous: En un vergier 6:56
06 Anonymous: La Quarte Estampie Royal 2:50
07 Anonymous: En ma forest 3:12
08 Bernart de Ventadorn: Can l'erba fresch' 6:19
09 Colin Muset: Volez oir la muse Muset? 6:50
10 Anonymous: Bele Doette 9:05
11 Anonymous: La Prime Estampie Royal 3:41
12 Guiraut de Bornelh: Reis glorios 7:32
Исполнители:
Duo Trobairitz are:
Faye Newton (soprano)
Hazel Brooks (vielle)

Лог создания рипа

Exact Audio Copy V1.0 beta 3 from 29. August 2011
EAC extraction logfile from 29. April 2013, 22:15
Duo Trobairitz / The Language of Love
Used drive : PIONEER BD-RW BDR-206 Adapter: 0 ID: 2
Read mode : SecureUtilize accurate stream : YesDefeat audio cache : YesMake use of C2 pointers : No
Read offset correction : 667Overread into Lead-In and Lead-Out : NoFill up missing offset samples with silence : YesDelete leading and trailing silent blocks : NoNull samples used in CRC calculations : YesUsed interface : Native Win32 interface for Win NT & 2000
Used output format : User Defined EncoderSelected bitrate : 1024 kBit/sQuality : HighAdd ID3 tag : YesCommand line compressor : C:\Program Files\FLAC\flac.exeAdditional command line options : -5 -T "Artist=%artist%" -T "Title=%title%" -T "Album=%albumtitle%" -T "Date=%year%" -T "Tracknumber=%tracknr%" -T "Genre=%genre%" %source% -o %dest%
TOC of the extracted CD
Track | Start | Length | Start sector | End sector --------------------------------------------------------- 1 | 0:00.00 | 2:23.67 | 0 | 10791 2 | 2:23.67 | 3:05.27 | 10792 | 24693 3 | 5:29.19 | 9:50.61 | 24694 | 69004 4 | 15:20.05 | 3:08.61 | 69005 | 83165 5 | 18:28.66 | 6:56.08 | 83166 | 114373 6 | 25:24.74 | 2:50.01 | 114374 | 127124 7 | 28:15.00 | 3:12.02 | 127125 | 141526 8 | 31:27.02 | 6:18.51 | 141527 | 169927 9 | 37:45.53 | 6:50.32 | 169928 | 200709 10 | 44:36.10 | 9:04.51 | 200710 | 241560 11 | 53:40.61 | 3:40.50 | 241561 | 258110 12 | 57:21.36 | 7:32.32 | 258111 | 292042
Range status and errors
Selected range
Filename F:\=== VINYL RIPS ===\=== EAC===\X FRESH RIP\Duo Trobairitz - The Language of Love.wav
Peak level 97.4 % Extraction speed 7.6 X Range quality 100.0 % Copy CRC CA8C9F16 Copy OK
No errors occurred
AccurateRip summary
Track 1 accurately ripped (confidence 2) [032F850E] (AR v1)Track 2 accurately ripped (confidence 2) [AB56FFDF] (AR v1)Track 3 accurately ripped (confidence 2) [00FBA9BC] (AR v1)Track 4 accurately ripped (confidence 2) [F594D0AC] (AR v1)Track 5 accurately ripped (confidence 2) [7FACBDE9] (AR v1)Track 6 accurately ripped (confidence 2) [AEE146C1] (AR v1)Track 7 accurately ripped (confidence 2) [194AD53C] (AR v1)Track 8 accurately ripped (confidence 2) [444E7F63] (AR v1)Track 9 accurately ripped (confidence 2) [97E3354F] (AR v1)Track 10 accurately ripped (confidence 2) [E8D4268F] (AR v1)Track 11 accurately ripped (confidence 2) [71181159] (AR v1)Track 12 accurately ripped (confidence 2) [AD187E0E] (AR v1)
All tracks accurately ripped
End of status report
---- CUETools DB Plugin V2.1.3
[CTDB TOCID: bX3kwJDeR8UL7JP4frduQLlzlhk-] disk not present in database, Submit result: bX3kwJDeR8UL7JP4frduQLlzlhk- has been uploaded
==== Log checksum 5466DB79E8F42C4163A4EB2EA580EEE89A086749639ED4C7668CB3D37C9686EE ====

Лог проверки качества

AUDIOCHECKER v2.0 beta (build 457) - by Dester - opdester@freemail.hu~~~~~~~~~~~~~~~~~~~~~~~~~~~~~~~~~~-=== DO NOT EDIT THIS FILE! ===-
Path: ...\Duo Trobairitz - The Language of Love {UK 2007}
1 -=- Duo Trobairitz - The Language of Love.wav -=- CDDA (100%)
186563476



Показать сообщения:    

Текущее время: 04-Дек 02:54

Часовой пояс: UTC + 3


Вы не можете начинать темы
Вы не можете отвечать на сообщения
Вы не можете редактировать свои сообщения
Вы не можете удалять свои сообщения
Вы не можете голосовать в опросах
Вы не можете прикреплять файлы к сообщениям
Вы не можете скачивать файлы