(Minimalism, Sacred) Антон Батагов "Тридцать семь наставлений монаха Тогме", Anton Batagov - 2007, FLAC (image+.cue) lossless


 

[Цитировать]

Антон Батагов "Тридцать семь наставлений монаха Тогме", Anton Batagov
Жанр: Minimalism, Sacred
Страна-производитель диска: Russia
Год издания диска: 2007
Издатель (лейбл): Long Arm Records
Номер по каталогу: CDLA07087
Дата записи: 2007
Аудиокодек: FLAC
Тип рипа: image+.cue
Битрейт аудио: lossless
Продолжительность: 50:05
Источник: собственный рип
Наличие сканов в содержимом раздачи: да
Треклист:
1. Вступление
2. Строфы 1-21
3. Строфы 22-37
4. Послесловие
Исполнители:
ПЕНИЕ: Лама Церинг Дондруб
РОЯЛЬ, ОРГАН: А.Б.
ВИБРАФОН, УДАРНЫЕ: Петерис Шунятис
БАС-ГИТАРА: Питер Вуд
ВИОЛОНЧЕЛЬ: Никита Кочергин

Лог создания рипа

Exact Audio Copy V1.0 beta 3 from 29. August 2011
Отчёт EAC об извлечении, выполненном 26. ноября 2013, 19:05
Anton Batagov / The Monk Thogmey's 37 Precepts
Дисковод: MATSHITADVD-RAM UJ890AS Adapter: 0 ID: 1
Режим чтения : ДостоверностьИспользование точного потока : ДаОтключение кэша аудио : ДаИспользование указателей C2 : Нет
Коррекция смещения при чтении : 102Способность читать области Lead-in и Lead-out : НетЗаполнение пропущенных сэмплов тишиной : ДаУдаление блоков с тишиной в начале и конце : НетПри вычислениях CRC использовались нулевые сэмплы : ДаИнтерфейс : Встроенный Win32-интерфейс для Win NT/2000
Выходной формат : Пользовательский кодировщикВыбранный битрейт : 896 kBit/sКачество : ВысокийДобавление ID3-тега : НетУтилита сжатия : C:\Program Files\Exact Audio Copy\Flac\flac.exeДополнительные параметры : -6 -V -T "ARTIST=%artist%" -T "TITLE=%title%" -T "ALBUM=%albumtitle%" -T "DATE=%year%" -T "TRACKNUMBER=%tracknr%" -T "GENRE=%genre%" -T "COMMENT=%comment%" -T "BAND=%albuminterpret%" -T "ALBUMARTIST=%albuminterpret%" -T "COMPOSER=%composer%" %haslyrics%--tag-from-file=LYRICS="%lyricsfile%"%haslyrics% -T "DISCNUMBER=%cdnumber%" -T "TOTALDISCS=%totalcds%" -T "TOTALTRACKS=%numtracks%" %hascover%--picture="%coverfile%"%hascover% %source% -o %dest%
TOC извлечённого CD
Трек | Старт | Длительность | Начальный сектор | Конечный сектор --------------------------------------------------------------------- 1 | 0:00.00 | 2:52.27 | 0 | 12926 2 | 2:52.27 | 21:25.65 | 12927 | 109366 3 | 24:18.17 | 16:48.64 | 109367 | 185030 4 | 41:07.06 | 8:55.69 | 185031 | 225224
Характеристики диапазона извлечения и сообщения об ошибках
Выбранный диапазон
Имя файла C:\Users\...\Music\Batagov - (2007) 37 Precepts\Anton Batagov - The Monk Thogmey's 37 Precepts.wav
Пиковый уровень 100.0 % Скорость извлечения 2.5 X Качество диапазона 100.0 % CRC теста 22DA52AD CRC копии 22DA52AD Копирование... OK
Ошибок не произошло
Конец отчёта
==== Контрольная сумма отчёта 657C2FADBCB748E056B09654F5EB1DA6E5DB4AF81F5D8760A199CE23FB9E9415 ====



Показать сообщения:    

Текущее время: 08-Дек 03:15

Часовой пояс: UTC + 3


Вы не можете начинать темы
Вы не можете отвечать на сообщения
Вы не можете редактировать свои сообщения
Вы не можете удалять свои сообщения
Вы не можете голосовать в опросах
Вы не можете прикреплять файлы к сообщениям
Вы не можете скачивать файлы