(Baroque Chamber Cantata) George Frideric Handel - Il Duello Amoroso, O come chiare e belle & Clori, mia bella Clori (Kwella, Denley, Fischer - London Handel Orchestra, Darlow) - 2003, FLAC (image+.cue) lossless


 

[Цитировать]

George Frideric Handel - Il Duello Amoroso, O come chiare e belle & Clori, mia bella Clori
Жанр: Baroque Chamber Cantata
Страна-производитель диска: Germany
Год издания диска: 2003
Издатель (лейбл): Helios
Номер по каталогу: 55136
Дата записи: 1984
Аудиокодек: FLAC
Тип рипа: image+.cue
Битрейт аудио: lossless
Продолжительность: 70'36
Источник: собственный рип
Наличие сканов в содержимом раздачи: да
Треклист/Исполнители:
O come chiare e belle
01 "I. Aria - O come chiare e belle"
02 "II. Recitative -Ma quel che piu"
03 "III. Aria - Chi mi chiama"
04 "IV. Recitative - Dell'arcadi foreste"
05 "V. Aria - Piu non spero"
06 "VI. Recitative - Per te non piu rubella"
07 "VII. Aria - Caro tebro"
08 "VIII. Recirative - Si, la Gloria"
09 "IX. Aria - Tornami a vagheggiar"
10 "X. Recirative - Tebro tu non respondi?"
11 "XI. Aria - Al suon che destano"
12 "XII. Recirative - Di stupor, di deletto"
13 "XIII. Aria - Io torno a sperare"
14 "XIV. Recirative - Di si giuste speranze"
15 "XV.Aria - Astro clemente"
16 "XVI. Recirative - Tebro, ti dessil il vero"
17 "XVII. Ariae - Alle voci del bronzo guerriero"
18 "XVIII.Trio - Viva, viva!"
Clori, mia bella Clori
19 "I. Recitative - Clori, mia bella Clori"
20 "II. Aria - Chiari lumi"
21 "III. Recitative - Temo, ma pue io spero"
22 "IV. Aria - Ne gigli e nelle rose"
23 "V. Recitative - Non e pero che non molesta"
24 "VI. Aria - Nie pupille"
25 "VII. Recitative - Tu nobil alma intanto"
26 "VIII. Aria - Di gelosia il timore"
Amarilli vezzosa (Il duello Amoroso)
27 "I. Sonata"
28 "II. Recitative - Amarilli vezzosa"
29 "III. Aria - Pietoso sguardo"
30 "IV. Recitative - Dunque tanto s'avanza"
31 "V. Aria -Piacer si non se donna"
32 "VI. Recitative - Si, si, crude!"
33 "VII. Aria - Quel nocchiero che mira le s..."
34 "VIII. Recitative - Amarilli, Amarilli"
35 "IX. Aria - E vanita d'un cor"
36 "X. Recitative - Or su, gia che ostinato"
37 "XI. Duet - Si, si, lasciami ingrata"
Catherine Denley (Alto)
Patrizia Kwella (Soprano)
Gilian Fischer (soprano)
London Handel Orchestra
Denys Darlow
Sung in Italian

Лог создания рипа

Exact Audio Copy V1.0 beta 3 from 29. August 2011
EAC extraction logfile from 9. November 2013, 17:30
Handel / Il Duello Amoroso, Darlow 1985
Used drive : TSSTcorpCDDVDW SE-208AB Adapter: 1 ID: 0
Read mode : SecureUtilize accurate stream : YesDefeat audio cache : YesMake use of C2 pointers : No
Read offset correction : 6Overread into Lead-In and Lead-Out : NoFill up missing offset samples with silence : YesDelete leading and trailing silent blocks : NoNull samples used in CRC calculations : YesUsed interface : Native Win32 interface for Win NT & 2000
Used output format : User Defined EncoderSelected bitrate : 768 kBit/sQuality : HighAdd ID3 tag : NoCommand line compressor : C:\Program Files\Exact Audio Copy\FLAC\FLAC.EXEAdditional command line options : -6 -V -T "ARTIST=%artist%" -T "TITLE=%title%" -T "ALBUM=%albumtitle%" -T "DATE=%year%" -T "TRACKNUMBER=%tracknr%" -T "GENRE=%genre%" -T "COMMENT=%comment%" -T "BAND=%albuminterpret%" -T "ALBUMARTIST=%albuminterpret%" -T "COMPOSER=%composer%" %haslyrics%--tag-from-file=LYRICS="%lyricsfile%"%haslyrics% -T "DISCNUMBER=%cdnumber%" -T "TOTALDISCS=%totalcds%" -T "TOTALTRACKS=%numtracks%" %hascover%--picture="%coverfile%"%hascover% %source% -o %dest%
TOC of the extracted CD
Track | Start | Length | Start sector | End sector --------------------------------------------------------- 1 | 0:00.00 | 4:11.66 | 0 | 18890 2 | 4:11.66 | 0:57.22 | 18891 | 23187 3 | 5:09.13 | 2:35.27 | 23188 | 34839 4 | 7:44.40 | 0:57.12 | 34840 | 39126 5 | 8:41.52 | 3:05.46 | 39127 | 53047 6 | 11:47.23 | 1:22.47 | 53048 | 59244 7 | 13:09.70 | 3:49.30 | 59245 | 76449 8 | 16:59.25 | 0:41.48 | 76450 | 79572 9 | 17:40.73 | 2:37.69 | 79573 | 91416 10 | 20:18.67 | 0:33.20 | 91417 | 93911 11 | 20:52.12 | 1:19.73 | 93912 | 99909 12 | 22:12.10 | 1:01.73 | 99910 | 104557 13 | 23:14.08 | 2:55.05 | 104558 | 117687 14 | 26:09.13 | 0:43.03 | 117688 | 120915 15 | 26:52.16 | 2:22.28 | 120916 | 131593 16 | 29:14.44 | 1:06.21 | 131594 | 136564 17 | 30:20.65 | 3:07.51 | 136565 | 150640 18 | 33:28.41 | 0:36.08 | 150641 | 153348 19 | 34:04.49 | 0:42.31 | 153349 | 156529 20 | 34:47.05 | 3:38.55 | 156530 | 172934 21 | 38:25.60 | 0:38.13 | 172935 | 175797 22 | 39:03.73 | 2:31.16 | 175798 | 187138 23 | 41:35.14 | 0:24.71 | 187139 | 189009 24 | 42:00.10 | 3:14.09 | 189010 | 203568 25 | 45:14.19 | 0:28.54 | 203569 | 205722 26 | 45:42.73 | 2:47.14 | 205723 | 218261 27 | 48:30.12 | 2:46.27 | 218262 | 230738 28 | 51:16.39 | 0:30.67 | 230739 | 233055 29 | 51:47.31 | 3:47.07 | 233056 | 250087 30 | 55:34.38 | 0:31.37 | 250088 | 252449 31 | 56:06.00 | 3:27.33 | 252450 | 268007 32 | 59:33.33 | 0:38.39 | 268008 | 270896 33 | 60:11.72 | 2:30.49 | 270897 | 282195 34 | 62:42.46 | 0:29.18 | 282196 | 284388 35 | 63:11.64 | 3:31.19 | 284389 | 300232 36 | 66:43.08 | 1:34.01 | 300233 | 307283 37 | 68:17.09 | 2:19.59 | 307284 | 317767
Range status and errors
Selected range
Filename L:\04 NAAR RUTRACKER\Handel - Il Duello Amoroso, Darlow 1985.wav
Peak level 98.4 % Extraction speed 4.7 X Range quality 100.0 % Test CRC 1A97EA84 Copy CRC 1A97EA84 Copy OK
No errors occurred
AccurateRip summary
Track 1 cannot be verified as accurate (confidence 5) [6D6BF5F8], AccurateRip returned [C1A9CCE3] (AR v2)Track 2 cannot be verified as accurate (confidence 5) [0FD8C7E8], AccurateRip returned [080AA56C] (AR v2)Track 3 cannot be verified as accurate (confidence 5) [2F6F116F], AccurateRip returned [C310E2E7] (AR v2)Track 4 cannot be verified as accurate (confidence 5) [767239C8], AccurateRip returned [13F1B91D] (AR v2)Track 5 cannot be verified as accurate (confidence 5) [9AB16D20], AccurateRip returned [5D9CDA74] (AR v2)Track 6 cannot be verified as accurate (confidence 5) [5EB10D50], AccurateRip returned [CABB5002] (AR v2)Track 7 cannot be verified as accurate (confidence 5) [27E9CE6A], AccurateRip returned [F474E396] (AR v2)Track 8 cannot be verified as accurate (confidence 5) [300F8210], AccurateRip returned [D8B01182] (AR v2)Track 9 cannot be verified as accurate (confidence 5) [EAA6B0D3], AccurateRip returned [FB0BAA2E] (AR v2)Track 10 cannot be verified as accurate (confidence 5) [9D7540FD], AccurateRip returned [E717F668] (AR v2)Track 11 cannot be verified as accurate (confidence 5) [037E103E], AccurateRip returned [10E3564F] (AR v2)Track 12 cannot be verified as accurate (confidence 5) [8EB86254], AccurateRip returned [3C33CAB3] (AR v2)Track 13 cannot be verified as accurate (confidence 5) [E432DD35], AccurateRip returned [12AC3C5E] (AR v2)Track 14 cannot be verified as accurate (confidence 5) [4E1D627D], AccurateRip returned [A688FFDD] (AR v2)Track 15 cannot be verified as accurate (confidence 5) [693E0E78], AccurateRip returned [1A77C9AF] (AR v2)Track 16 cannot be verified as accurate (confidence 5) [131276C5], AccurateRip returned [53B1ED88] (AR v2)Track 17 cannot be verified as accurate (confidence 5) [AEE2B170], AccurateRip returned [AF5B8D0F] (AR v2)Track 18 cannot be verified as accurate (confidence 5) [951D55D1], AccurateRip returned [39A595C6] (AR v2)Track 19 cannot be verified as accurate (confidence 5) [D083FDF2], AccurateRip returned [B8D00B7A] (AR v2)Track 20 cannot be verified as accurate (confidence 5) [3BB18AAD], AccurateRip returned [8B40F735] (AR v2)Track 21 cannot be verified as accurate (confidence 5) [DB481BAC], AccurateRip returned [ECE2DE00] (AR v2)Track 22 cannot be verified as accurate (confidence 5) [8EEF94E4], AccurateRip returned [FB121687] (AR v2)Track 23 cannot be verified as accurate (confidence 5) [1CD2BBB8], AccurateRip returned [3F4A8067] (AR v2)Track 24 cannot be verified as accurate (confidence 5) [283BAB57], AccurateRip returned [09207E79] (AR v2)Track 25 cannot be verified as accurate (confidence 5) [E913702D], AccurateRip returned [780DE5EB] (AR v2)Track 26 cannot be verified as accurate (confidence 5) [817BEFC1], AccurateRip returned [6B0532E7] (AR v2)Track 27 cannot be verified as accurate (confidence 5) [6FA64ECE], AccurateRip returned [B9E01C7C] (AR v2)Track 28 cannot be verified as accurate (confidence 5) [01886EE9], AccurateRip returned [C8D5D073] (AR v2)Track 29 cannot be verified as accurate (confidence 5) [3DDF6180], AccurateRip returned [A281F78E] (AR v2)Track 30 cannot be verified as accurate (confidence 5) [0002E722], AccurateRip returned [6A889597] (AR v2)Track 31 cannot be verified as accurate (confidence 5) [07DE4C16], AccurateRip returned [4470718B] (AR v2)Track 32 cannot be verified as accurate (confidence 5) [511E5C46], AccurateRip returned [E670E386] (AR v2)Track 33 cannot be verified as accurate (confidence 5) [7F705306], AccurateRip returned [72B84670] (AR v2)Track 34 cannot be verified as accurate (confidence 5) [9B3DB731], AccurateRip returned [02157E1E] (AR v2)Track 35 cannot be verified as accurate (confidence 5) [059C486B], AccurateRip returned [9A8D9D87] (AR v2)Track 36 cannot be verified as accurate (confidence 5) [D80B4959], AccurateRip returned [3562B66C] (AR v2)Track 37 cannot be verified as accurate (confidence 4) [C400BE20], AccurateRip returned [67C40CFE] (AR v2)
No tracks could be verified as accurateYou may have a different pressing from the one(s) in the database
End of status report
---- CUETools DB Plugin V2.1.3
[CTDB TOCID: Q74a9nOk.Xgjl.O5ZlZMgEE5s8g-] disk not present in database, Submit result: Q74a9nOk.Xgjl.O5ZlZMgEE5s8g- has been uploaded
==== Log checksum E1E5E8F5B3288BE077A36927B231A3886B33A1126DCFF44590AB5D624299DEFD ====

Содержание индексной карты (.CUE)

REM GENRE VocalREM DATE 1985REM DISCID FB108C25REM COMMENT "ExactAudioCopy v1.0b3"CATALOG 0034571151366PERFORMER "Handel"TITLE "Il Duello Amoroso, Darlow 1985"FILE "Handel - Il Duello Amoroso, Darlow 1985.flac" WAVE TRACK 01 AUDIO TITLE "O come chiare e belle I. Aria - O come chiare e belle" PERFORMER "Handel" ISRC GBAJY0313601 INDEX 01 00:00:00 TRACK 02 AUDIO TITLE "O come chiare e belle II. Recitative -Ma quel che piu" PERFORMER "Handel" ISRC GBAJY0313602 INDEX 01 04:11:66 TRACK 03 AUDIO TITLE "O come chiare e belle III. Aria - Chi mi chiama" PERFORMER "Handel" ISRC GBAJY0313603 INDEX 01 05:09:13 TRACK 04 AUDIO TITLE "O come chiare e belle IV. Recitative - Dell'arcadi foreste" PERFORMER "Handel" ISRC GBAJY0313604 INDEX 01 07:44:40 TRACK 05 AUDIO TITLE "O come chiare e belle V. Aria - Piu non spero" PERFORMER "Handel" ISRC GBAJY0313605 INDEX 01 08:41:52 TRACK 06 AUDIO TITLE "O come chiare e belle VI. Recitative - Per te non piu rubella" PERFORMER "Handel" ISRC GBAJY0313606 INDEX 01 11:47:23 TRACK 07 AUDIO TITLE "O come chiare e belle VII. Aria - Caro tebro" PERFORMER "Handel" ISRC GBAJY0313607 INDEX 01 13:09:70 TRACK 08 AUDIO TITLE "O come chiare e belle VIII. Recirative - Si, la Gloria" PERFORMER "Handel" ISRC GBAJY0313608 INDEX 01 16:59:25 TRACK 09 AUDIO TITLE "O come chiare e belle IX. Aria - Tornami a vagheggiar" PERFORMER "Handel" ISRC GBAJY0313609 INDEX 01 17:40:73 TRACK 10 AUDIO TITLE "O come chiare e belle X. Recirative - Tebro tu non respondi?" PERFORMER "Handel" ISRC GBAJY0313610 INDEX 01 20:18:67 TRACK 11 AUDIO TITLE "O come chiare e belle XI. Aria - Al suon che destano" PERFORMER "Handel" ISRC GBAJY0313611 INDEX 01 20:52:12 TRACK 12 AUDIO TITLE "O come chiare e belle XII. Recirative - Di stupor, di deletto" PERFORMER "Handel" ISRC GBAJY0313612 INDEX 01 22:12:10 TRACK 13 AUDIO TITLE "O come chiare e belle XIII. Aria - Io torno a sperare" PERFORMER "Handel" ISRC GBAJY0313613 INDEX 01 23:14:08 TRACK 14 AUDIO TITLE "O come chiare e belle XIV. Recirative - Di si giuste speranze" PERFORMER "Handel" ISRC GBAJY0313614 INDEX 01 26:09:13 TRACK 15 AUDIO TITLE "O come chiare e belle XV.Aria - Astro clemente" PERFORMER "Handel" ISRC GBAJY0313615 INDEX 01 26:52:16 TRACK 16 AUDIO TITLE "O come chiare e belle XVI. Recirative - Tebro, ti dessil il vero" PERFORMER "Handel" ISRC GBAJY0313615 INDEX 01 29:14:44 TRACK 17 AUDIO TITLE "O come chiare e belle XVII. Ariae - Alle voci del bronzo guerriero" PERFORMER "Handel" ISRC GBAJY0313617 INDEX 01 30:20:65 TRACK 18 AUDIO TITLE "O come chiare e belle XVIII.Trio - Viva, viva!" PERFORMER "Handel" ISRC GBAJY0313618 INDEX 01 33:28:41 TRACK 19 AUDIO TITLE "Clori, mia bella Clori I. Recitative - Clori, mia bella Clori" PERFORMER "Handel" ISRC GBAJY0313619 INDEX 00 33:51:13 INDEX 01 34:04:49 TRACK 20 AUDIO TITLE "Clori, mia bella Clori II. Aria - Chiari lumi" PERFORMER "Handel" ISRC GBAJY0313620 INDEX 01 34:47:05 TRACK 21 AUDIO TITLE "Clori, mia bella Clori III. Recitative - Temo, ma pue io spero" PERFORMER "Handel" ISRC GBAJY0313621 INDEX 01 38:25:60 TRACK 22 AUDIO TITLE "Clori, mia bella Clori IV. Aria - Ne gigli e nelle rose" PERFORMER "Handel" ISRC GBAJY0313622 INDEX 01 39:03:73 TRACK 23 AUDIO TITLE "Clori, mia bella Clori V. Recitative - Non e pero che non molesta" PERFORMER "Handel" ISRC GBAJY0313623 INDEX 01 41:35:14 TRACK 24 AUDIO TITLE "Clori, mia bella Clori VI. Aria - Nie pupille" PERFORMER "Handel" ISRC GBAJY0313623 INDEX 01 42:00:10 TRACK 25 AUDIO TITLE "Clori, mia bella Clori VII. Recitative - Tu nobil alma intanto" PERFORMER "Handel" ISRC GBAJY0313625 INDEX 01 45:14:19 TRACK 26 AUDIO TITLE "Clori, mia bella Clori VIII. Aria - Di gelosia il timore" PERFORMER "Handel" ISRC GBAJY0313626 INDEX 01 45:42:73 TRACK 27 AUDIO TITLE "Amarilli vezzosa (Il duello Amoroso) I. Sonata" PERFORMER "Handel" ISRC GBAJY0313627 INDEX 00 48:20:56 INDEX 01 48:30:12 TRACK 28 AUDIO TITLE "Amarilli vezzosa (Il duello Amoroso) II. Recitative - Amarilli vezzosa" PERFORMER "Handel" ISRC GBAJY0313628 INDEX 01 51:16:39 TRACK 29 AUDIO TITLE "Amarilli vezzosa (Il duello Amoroso) III. Aria - Pietoso sguardo" PERFORMER "Handel" ISRC GBAJY0313629 INDEX 01 51:47:31 TRACK 30 AUDIO TITLE "Amarilli vezzosa (Il duello Amoroso) IV. Recitative - Dunque tanto s'avanza" PERFORMER "Handel" ISRC GBAJY0313630 INDEX 01 55:34:38 TRACK 31 AUDIO TITLE "Amarilli vezzosa (Il duello Amoroso) V. Aria -Piacer si non se donna" PERFORMER "Handel" ISRC GBAJY0313631 INDEX 01 56:06:00 TRACK 32 AUDIO TITLE "Amarilli vezzosa (Il duello Amoroso) VI. Recitative - Si, si, crude!" PERFORMER "Handel" ISRC GBAJY0313632 INDEX 01 59:33:33 TRACK 33 AUDIO TITLE "Amarilli vezzosa (Il duello Amoroso) VII. Aria - Quel nocchiero che mira le s..." PERFORMER "Handel" ISRC GBAJY0313633 INDEX 01 60:11:72 TRACK 34 AUDIO TITLE "Amarilli vezzosa (Il duello Amoroso) VIII. Recitative - Amarilli, Amarilli" PERFORMER "Handel" ISRC GBAJY0313634 INDEX 01 62:42:46 TRACK 35 AUDIO TITLE "Amarilli vezzosa (Il duello Amoroso) IX. Aria - E vanita d'un cor" PERFORMER "Handel" ISRC GBAJY0313635 INDEX 01 63:11:64 TRACK 36 AUDIO TITLE "Amarilli vezzosa (Il duello Amoroso) X. Recitative - Or su, gia che ostinato" PERFORMER "Handel" ISRC GBAJY0313636 INDEX 01 66:43:08 TRACK 37 AUDIO TITLE "Amarilli vezzosa (Il duello Amoroso)XI. Duet - Si, si, lasciami ingrata" PERFORMER "Handel" ISRC GBAJY0313637 INDEX 01 68:17:09
Дополнительная информация:
0 coma chiare e belle, an occasional piece and was closely connected with Handel's Roman patron, the Marchese Ruspoli.
There are three characters, Olinto, a shepherd (Patrizia Kwella), the river Tiber (Catherine Denley) and Glory (Gilllan Fisher).
A string orchestra with an additional trumpet for the closing terzetto completes the picture.
There's an enormous amount of contrast in colour and mood contained in a delightful sequence of arias.
Glory's "Tornami a vagheggiar", a sparkling 3/4 aria, is one of the musical highlights here and Gillian Fisher's account is full of vitality and precision—and lovers of Handel's operas will be gratified to find its re-occurrence in Alcinabut that is not to say that many of the remaining arias are any less effective.
The singing throughout and the string playing, both concertino and ripieno, is warm-toned and lively.
A salute to the excellent trumpeter, too.
The solo soprano cantata, Clori, mia bella Clori, is sung by Patrizia Kwella.
In it an unidentified man, probably a shepherd, reflects on the plight of unrequited love.
Handel beautifully portrays the contrasting emotions in four recitatives and arias.
Of these the third aria, and indeed its preceding recitative with an affecting falling sixth, are especially attractive.
It's a demanding work for the soloist culminating in several coloratura episodes in the last aria.
Patrizia Kwella sings with warmth and technical agility, but on occasion she sounds just a little strained in the uppermost reaches of the tessitura.
Neither here, nor in the remaining cantata is the string playing so polished as it is in the first work.
The third cantata is variously called Amarilli vezzosa and Il duello amoroso.
It's Handel's only known cantata for soprano and contralto voices and appears neither in Chrysander nor in any published edition to date.
The text relates an encounter between a shepherd (Daliso) sung by Catherine Denley and a shepherdess (Amaryllis) sung by Patrizia Kwella.
But first comes a vigorous opening instrumental movement which is followed by recitatives, four arias and a closing duet.
There are some vivid pieces of characterization here but, whilst there is hardly a dull musical moment, little of the music seems to measure up to the best in the other works.
Short though it is, the closing Menuet for the two voices makes the greatest appeal.
In short, enjoyable performances; a little variable in their degree of finesse, but well worth exploring.



Показать сообщения:    

Текущее время: 05-Дек 15:33

Часовой пояс: UTC + 3


Вы не можете начинать темы
Вы не можете отвечать на сообщения
Вы не можете редактировать свои сообщения
Вы не можете удалять свои сообщения
Вы не можете голосовать в опросах
Вы не можете прикреплять файлы к сообщениям
Вы не можете скачивать файлы