(Vocal Music) Britten - Canticles I-V; The Heart of the Matter - Langridge, Rigby, Ragin, Finley, Bedford - 2004, FLAC (tracks+.cue) lossless


 

[Цитировать]

Benjamin Britten - Canticles I-V; The Heart of the Matter - Langridge, Rigby, Ragin, Finley, Bedford
Жанр: Vocal Music
Страна-производитель диска: EU
Год издания диска: 2004
Издатель (лейбл): Naxos
Номер по каталогу: 8.557202
Дата записи: 1996
Аудиокодек: FLAC
Тип рипа: tracks+.cue
Битрейт аудио: lossless
Продолжительность: 66:47
Источник: скачано с web
Важная информация: рип не мой, все благодарности оригинальному аплоудеру / Important Note: not my rip, all credits to the original uploader
Наличие сканов в содержимом раздачи: да
Треклист:
[01] Canticle I, op. 40
[02] Canticle II, op. 51
[03-07] The Heart of the Matter (beginning)
[08] Canticle III, op. 55
[09-10] The Heart of the Matter (cont.)
[11] Canticle IV, op. 86
[12] Canticle V, op. 89
Исполнители:
Jean Rigby (mezzo soprano)
Derek Lee Ragin (counter-tenor)
Philip Langridge (tenor)
Gerald Finley (baritone)
Frank Lloyd (horn)
Osian Ellis (harp)
Steuart Bedford (piano)
Dame Judi Dench (narrator)

Лог создания рипа

Exact Audio Copy V0.99 prebeta 5 from 4. May 2009
EAC extraction logfile from 10. March 2010, 13:50
Philip Landgridge, Steuart Bedford, Dame Judi Dench / BrittenCanticles I-V, and The Heart of the Matter
Used drive : TSSTcorpCDDVDW TS-L632H Adapter: 2 ID: 0
Read mode : SecureUtilize accurate stream : YesDefeat audio cache : YesMake use of C2 pointers : No
Read offset correction : 6Overread into Lead-In and Lead-Out : NoFill up missing offset samples with silence : YesDelete leading and trailing silent blocks : NoNull samples used in CRC calculations : YesUsed interface : Native Win32 interface for Win NT & 2000
Used output format : User Defined EncoderSelected bitrate : 32 kBit/sQuality : HighAdd ID3 tag : NoCommand line compressor : C:\Program Files\Exact Audio Copy\Flac\flac.exeAdditional command line options : -8 -V -T "ARTIST=%a" -T "TITLE=%t" -T "ALBUM=%g" -T "DATE=%y" -T "TRACKNUMBER=%n" -T "TOTALTRACKS=%x" -T "GENRE=%m" -T "ALBUM ARTIST=%v" -T "ALBUMARTIST=%v" -T "COMMENT=EAC V0.99 prebeta 4, Secure Mode, Test & Copy, FLAC -8
TOC of the extracted CD
Track | Start | Length | Start sector | End sector --------------------------------------------------------- 1 | 0:00.00 | 7:19.17 | 0 | 32941 2 | 7:19.17 | 16:10.47 | 32942 | 105738 3 | 23:29.64 | 2:39.68 | 105739 | 117731 4 | 26:09.57 | 1:02.59 | 117732 | 122440 5 | 27:12.41 | 0:46.55 | 122441 | 125945 6 | 27:59.21 | 1:22.01 | 125946 | 132096 7 | 29:21.22 | 2:46.45 | 132097 | 144591 8 | 32:07.67 | 11:31.58 | 144592 | 196474 9 | 43:39.50 | 1:55.25 | 196475 | 205124 10 | 45:35.00 | 2:50.31 | 205125 | 217905 11 | 48:25.31 | 10:49.69 | 217906 | 266649 12 | 59:15.25 | 7:29.50 | 266650 | 300374
Range status and errors
Selected range
Filename C:\Users\horacio\Desktop\BrittenCanticles I-V, and The Heart of the Matter.wav
Peak level 85.8 % Range quality 99.9 % Test CRC CC065BB8 Copy CRC CC065BB8 Copy OK
No errors occurred
AccurateRip summary
Track 1 accurately ripped (confidence 2) [A8132D46]Track 2 accurately ripped (confidence 2) [CCA42C15]Track 3 accurately ripped (confidence 2) [D6F1AC80]Track 4 accurately ripped (confidence 2) [BF0E2E87]Track 5 accurately ripped (confidence 2) [4AD7821B]Track 6 accurately ripped (confidence 2) [1F153C74]Track 7 accurately ripped (confidence 2) [F7A7A305]Track 8 accurately ripped (confidence 2) [007072F8]Track 9 accurately ripped (confidence 2) [621DD919]Track 10 accurately ripped (confidence 2) [822C1A71]Track 11 accurately ripped (confidence 2) [A403FD97]Track 12 accurately ripped (confidence 2) [ECE2C9A5]
All tracks accurately ripped
End of status report

Содержание индексной карты (.CUE)

REM GENRE ClassicalREM DATE 1996REM DISCID A80FA50CREM COMMENT "ExactAudioCopy v0.99pb5"PERFORMER "Philip Landgridge, Steuart Bedford, Dame Judi Dench"TITLE "BrittenCanticles I-V, and The Heart of the Matter"FILE "BrittenCanticles I-V, and The Heart of the Matter.flac" WAVE TRACK 01 AUDIO TITLE "Canticle I Op 40 - My Beloved is Mine" PERFORMER "Philip Landgridge, Steuart Bedford, Dame Judi Dench" INDEX 01 00:00:00 TRACK 02 AUDIO TITLE "Canticle II Op 51 - Abraham and Isaac" PERFORMER "Philip Landgridge, Steuart Bedford, Dame Judi Dench" INDEX 00 07:08:56 INDEX 01 07:19:17 TRACK 03 AUDIO TITLE "The Heart of the Matter - Prologue, Fanfare, Song (Frank Lloyd, hn)" PERFORMER "Philip Landgridge, Steuart Bedford, Dame Judi Dench" INDEX 00 23:18:37 INDEX 01 23:29:64 TRACK 04 AUDIO TITLE "The Heart of the Matter - Reading 1, Fanfare (Frank Lloyd, hn)" PERFORMER "Philip Landgridge, Steuart Bedford, Dame Judi Dench" INDEX 00 26:08:10 INDEX 01 26:09:57 TRACK 05 AUDIO TITLE "The Heart of the Matter - Reading 2 (Frank Lloyd, hn)" PERFORMER "Philip Landgridge, Steuart Bedford, Dame Judi Dench" INDEX 01 27:12:41 TRACK 06 AUDIO TITLE "The Heart of the Matter - Song (Frank Lloyd, hn)" PERFORMER "Philip Landgridge, Steuart Bedford, Dame Judi Dench" INDEX 01 27:59:21 TRACK 07 AUDIO TITLE "The Heart of the Matter - Reading 3 (Frank Lloyd, hn)" PERFORMER "Philip Landgridge, Steuart Bedford, Dame Judi Dench" INDEX 01 29:21:22 TRACK 08 AUDIO TITLE "Canticle III Op 55 - Still Falls the Rain" PERFORMER "Philip Landgridge, Steuart Bedford, Dame Judi Dench" INDEX 00 32:05:05 INDEX 01 32:07:67 TRACK 09 AUDIO TITLE "The Heart of the Matter - Reading 4" PERFORMER "Philip Landgridge, Steuart Bedford, Dame Judi Dench" INDEX 00 43:35:46 INDEX 01 43:39:50 TRACK 10 AUDIO TITLE "The Heart of the Matter - Epilogue, Fanfare, Song" PERFORMER "Philip Landgridge, Steuart Bedford, Dame Judi Dench" INDEX 01 45:35:00 TRACK 11 AUDIO TITLE "Canticle IV Op 86 - Journey of the Magi" PERFORMER "Philip Landgridge, Steuart Bedford, Dame Judi Dench" INDEX 00 48:16:53 INDEX 01 48:25:31 TRACK 12 AUDIO TITLE "Canticle V Op 89 - The Death of St Narcissus" PERFORMER "Philip Landgridge, Steuart Bedford, Dame Judi Dench" INDEX 00 59:06:27 INDEX 01 59:15:25



Показать сообщения:    

Текущее время: 08-Дек 23:10

Часовой пояс: UTC + 3


Вы не можете начинать темы
Вы не можете отвечать на сообщения
Вы не можете редактировать свои сообщения
Вы не можете удалять свои сообщения
Вы не можете голосовать в опросах
Вы не можете прикреплять файлы к сообщениям
Вы не можете скачивать файлы