(Lied) Britten - Realizations from Harmonia Sacra; Auden Settings; This Way to the Tomb; The Holy Sonnets of John Donne; Selected Songs - I. Bostridge, G. Johnson - 1995, FLAC (tracks+.cue) lossless


 

[Цитировать]

Benjamin Britten - Realizations from Harmonia Sacra; Auden Settings; This Way to the Tomb; The Holy Sonnets of John Donne; Selected Songs - I. Bostridge, G. Johnson
Жанр: Lied
Страна-производитель диска: Great Britain
Год издания диска: 1995
Издатель (лейбл): Hyperion
Номер по каталогу: CDA 66823
Дата записи: 1995
Аудиокодек: FLAC
Тип рипа: tracks+.cue
Битрейт аудио: lossless
Продолжительность: 65:30
Источник: скачано с web
Важная информация: рип не мой, все благодарности оригинальному аплоудеру / Important Note: not my rip, all credits to the original uploader
Наличие сканов в содержимом раздачи: да
Треклист:
[01]-[03] Three realizations from Harmonia Sacra
[04]-[06] Evening, Morning, Night from Ronald Duncan's 'This Way to the Tomb'
[07] Night covers up the rigid land (Auden)
[08] Fish in the Unruffled Lakes (Auden)
[09] To lie flat on the back with the knees flexed (Auden)
[10] A Poison Tree (Blake)
[11] When you're feeling like expressing your affection (Auden)
[12] Not even summer yet (Burra)
[13] The Red Cockatoo (Waley)
[14] Wild with passion (Beddoes)
[15] If thou wilt ease thine heart (Beddoes)
[16] Cradle Song for Eleanor (MacNeice)
[17] Birthday Song for Erwin (Duncan)
[18] Um Mitternacht (Goethe)
[19]-[27] The Holy Sonnets of John Donne, Op. 35
Исполнители:
Ian Bostridge (tenor)
Graham Johnson (piano)

Лог создания рипа

EAC extraction logfile from 6. November 2006, 18:40 for CDBritten / Britten - The Red Cockatoo, Donne Sonnets etc - Bostridge, Johnson
Used drive : PHILIPS DVDR1660P1 Adapter: 0 ID: 2Read mode : Secure with NO C2, accurate stream, disable cacheRead offset correction : 618Overread into Lead-In and Lead-Out : No
Used output format : Internal WAV Routines 44.100 Hz; 16 Bit; Stereo
Other options : Fill up missing offset samples with silence : Yes Delete leading and trailing silent blocks : No Native Win32 interface for Win NT & 2000
Track 1 Filename G:\My Documents\My Music\Temp Process\Britten - The Red Cockatoo, Donne Sonnets etc - Bostridge, Johnson\01 Realizations from Harmonia Sacra- I. Lord! I have sinned.wav
Peak level 58.6 % Track quality 100.0 % Copy CRC AED5BE7D Copy OK
Track 2 Filename G:\My Documents\My Music\Temp Process\Britten - The Red Cockatoo, Donne Sonnets etc - Bostridge, Johnson\02 Realizations from Harmonia Sacra- II. Hymn to God the Father.wav
Peak level 59.8 % Track quality 100.0 % Copy CRC D64AD835 Copy OK
Track 3 Filename G:\My Documents\My Music\Temp Process\Britten - The Red Cockatoo, Donne Sonnets etc - Bostridge, Johnson\03 Realizations from Harmonia Sacra- III. A Hymn on Divine Musick.wav
Peak level 54.5 % Track quality 100.0 % Copy CRC B80B946B Copy OK
Track 4 Filename G:\My Documents\My Music\Temp Process\Britten - The Red Cockatoo, Donne Sonnets etc - Bostridge, Johnson\04 This way to the Tomb- I. Evening.wav
Peak level 56.7 % Track quality 100.0 % Copy CRC 1CE20576 Copy OK
Track 5 Filename G:\My Documents\My Music\Temp Process\Britten - The Red Cockatoo, Donne Sonnets etc - Bostridge, Johnson\05 This way to the Tomb- II. Morning.wav
Peak level 65.2 % Track quality 100.0 % Copy CRC B74A15B6 Copy OK
Track 6 Filename G:\My Documents\My Music\Temp Process\Britten - The Red Cockatoo, Donne Sonnets etc - Bostridge, Johnson\06 This way to the Tomb- III. Night.wav
Peak level 82.4 % Track quality 99.8 % Copy CRC CADAE5B7 Copy OK
Track 7 Filename G:\My Documents\My Music\Temp Process\Britten - The Red Cockatoo, Donne Sonnets etc - Bostridge, Johnson\07 W H Auden settings- I. Night covers up the rigid land.wav
Peak level 68.8 % Track quality 100.0 % Copy CRC 6E7103EC Copy OK
Track 8 Filename G:\My Documents\My Music\Temp Process\Britten - The Red Cockatoo, Donne Sonnets etc - Bostridge, Johnson\08 W H Auden settings- II. Fish in the Unruffled Lakes.wav
Peak level 60.6 % Track quality 100.0 % Copy CRC 55E20639 Copy OK
Track 9 Filename G:\My Documents\My Music\Temp Process\Britten - The Red Cockatoo, Donne Sonnets etc - Bostridge, Johnson\09 W H Auden settings- III. To lie flat on the back with the knees flexed.wav
Peak level 69.2 % Track quality 99.9 % Copy CRC 0CAEA910 Copy OK
Track 10 Filename G:\My Documents\My Music\Temp Process\Britten - The Red Cockatoo, Donne Sonnets etc - Bostridge, Johnson\10 The Red Cockatoo and other songs- I. A Poison Tree.wav
Peak level 100.0 % Track quality 100.0 % Copy CRC 34C792B9 Copy OK
Track 11 Filename G:\My Documents\My Music\Temp Process\Britten - The Red Cockatoo, Donne Sonnets etc - Bostridge, Johnson\11 The Red Cockatoo and other songs- II. When you're feeling like expressing your affection.wav
Peak level 42.2 % Track quality 100.0 % Copy CRC 8E9414C5 Copy OK
Track 12 Filename G:\My Documents\My Music\Temp Process\Britten - The Red Cockatoo, Donne Sonnets etc - Bostridge, Johnson\12 The Red Cockatoo and other songs- III. Not even summer yet.wav
Peak level 48.6 % Track quality 100.0 % Copy CRC 84FC33C9 Copy OK
Track 13 Filename G:\My Documents\My Music\Temp Process\Britten - The Red Cockatoo, Donne Sonnets etc - Bostridge, Johnson\13 The Red Cockatoo and other songs- IV. The Red Cockatoo.wav
Peak level 68.3 % Track quality 100.0 % Copy CRC 3567F730 Copy OK
Track 14 Filename G:\My Documents\My Music\Temp Process\Britten - The Red Cockatoo, Donne Sonnets etc - Bostridge, Johnson\14 The Red Cockatoo and other songs- V. Wild with passion.wav
Peak level 78.4 % Track quality 100.0 % Copy CRC ADA07D8C Copy OK
Track 15 Filename G:\My Documents\My Music\Temp Process\Britten - The Red Cockatoo, Donne Sonnets etc - Bostridge, Johnson\15 The Red Cockatoo and other songs- VI. If thou wilt ease thine heart.wav
Peak level 70.7 % Track quality 100.0 % Copy CRC ABBF9B18 Copy OK
Track 16 Filename G:\My Documents\My Music\Temp Process\Britten - The Red Cockatoo, Donne Sonnets etc - Bostridge, Johnson\16 The Red Cockatoo and other songs- VII. Cradle Song for Eleanor.wav
Peak level 63.8 % Track quality 100.0 % Copy CRC 6E05A06E Copy OK
Track 17 Filename G:\My Documents\My Music\Temp Process\Britten - The Red Cockatoo, Donne Sonnets etc - Bostridge, Johnson\17 The Red Cockatoo and other songs- VIII. Birthday Song for Erwin.wav
Peak level 44.2 % Track quality 100.0 % Copy CRC EB4424AE Copy OK
Track 18 Filename G:\My Documents\My Music\Temp Process\Britten - The Red Cockatoo, Donne Sonnets etc - Bostridge, Johnson\18 The Red Cockatoo and other songs- IX. Um Mitternacht.wav
Peak level 56.9 % Track quality 100.0 % Copy CRC F90DF9E7 Copy OK
Track 19 Filename G:\My Documents\My Music\Temp Process\Britten - The Red Cockatoo, Donne Sonnets etc - Bostridge, Johnson\19 The holy sonnets of John Donne- I. Oh my blacke Soule.wav
Peak level 77.7 % Track quality 100.0 % Copy CRC 33535545 Copy OK
Track 20 Filename G:\My Documents\My Music\Temp Process\Britten - The Red Cockatoo, Donne Sonnets etc - Bostridge, Johnson\20 The holy sonnets of John Donne- II. Batter my heart.wav
Peak level 86.0 % Track quality 100.0 % Copy CRC 910C8446 Copy OK
Track 21 Filename G:\My Documents\My Music\Temp Process\Britten - The Red Cockatoo, Donne Sonnets etc - Bostridge, Johnson\21 The holy sonnets of John Donne- III. O might those sighes and teares.wav
Peak level 95.3 % Track quality 100.0 % Copy CRC 603D4548 Copy OK
Track 22 Filename G:\My Documents\My Music\Temp Process\Britten - The Red Cockatoo, Donne Sonnets etc - Bostridge, Johnson\22 The holy sonnets of John Donne- IV. Oh, to vex me.wav
Peak level 64.9 % Track quality 100.0 % Copy CRC EB36F83F Copy OK
Track 23 Filename G:\My Documents\My Music\Temp Process\Britten - The Red Cockatoo, Donne Sonnets etc - Bostridge, Johnson\23 The holy sonnets of John Donne- V. What if this present.wav
Peak level 92.1 % Track quality 99.9 % Copy CRC 686040D7 Copy OK
Track 24 Filename G:\My Documents\My Music\Temp Process\Britten - The Red Cockatoo, Donne Sonnets etc - Bostridge, Johnson\24 The holy sonnets of John Donne- VI. Since she whom I loved.wav
Peak level 67.6 % Track quality 100.0 % Copy CRC 2CF33268 Copy OK
Track 25 Filename G:\My Documents\My Music\Temp Process\Britten - The Red Cockatoo, Donne Sonnets etc - Bostridge, Johnson\25 The holy sonnets of John Donne- VII. At the round earth's imagined corners.wav
Peak level 82.8 % Track quality 100.0 % Copy CRC 9E2FFA5D Copy OK
Track 26 Filename G:\My Documents\My Music\Temp Process\Britten - The Red Cockatoo, Donne Sonnets etc - Bostridge, Johnson\26 The holy sonnets of John Donne- VIII. Thou hast made me.wav
Peak level 84.4 % Track quality 100.0 % Copy CRC 6E3DA8EE Copy OK
Track 27 Filename G:\My Documents\My Music\Temp Process\Britten - The Red Cockatoo, Donne Sonnets etc - Bostridge, Johnson\27 The holy sonnets of John Donne- IX. Death, be not proud.wav
Peak level 100.0 % Track quality 100.0 % Copy CRC 5ED5695D Copy OK
No errors occured
End of status report

Содержание индексной карты (.CUE)

REM GENRE ClassicalREM DISCID 880F5A1BREM COMMENT "ExactAudioCopy v0.95b3"PERFORMER "Britten"TITLE "Britten - The Red Cockatoo, Donne Sonnets etc - Bostridge, Johnson"FILE "01 Realizations from Harmonia Sacra- I. Lord! I have sinned.flac" WAVE TRACK 01 AUDIO TITLE "Realizations from Harmonia Sacra: I. Lord! I have sinned" PERFORMER "Britten" INDEX 01 00:00:00 TRACK 02 AUDIO TITLE "Realizations from Harmonia Sacra: II. Hymn to God the Father" PERFORMER "Britten" FLAGS DCP INDEX 00 02:48:55FILE "02 Realizations from Harmonia Sacra- II. Hymn to God the Father.flac" WAVE INDEX 01 00:00:00 TRACK 03 AUDIO TITLE "Realizations from Harmonia Sacra: III. A Hymn on Divine Musick" PERFORMER "Britten" FLAGS DCP INDEX 00 02:24:50FILE "03 Realizations from Harmonia Sacra- III. A Hymn on Divine Musick.flac" WAVE INDEX 01 00:00:00 TRACK 04 AUDIO TITLE "This way to the Tomb: I. Evening" PERFORMER "Britten" FLAGS DCP INDEX 00 05:21:67FILE "04 This way to the Tomb- I. Evening.flac" WAVE INDEX 01 00:00:00 TRACK 05 AUDIO TITLE "This way to the Tomb: II. Morning" PERFORMER "Britten" FLAGS DCP INDEX 00 01:35:43FILE "05 This way to the Tomb- II. Morning.flac" WAVE INDEX 01 00:00:00 TRACK 06 AUDIO TITLE "This way to the Tomb: III. Night" PERFORMER "Britten" FLAGS DCP INDEX 00 01:00:35FILE "06 This way to the Tomb- III. Night.flac" WAVE INDEX 01 00:00:00 TRACK 07 AUDIO TITLE "W H Auden settings: I. Night covers up the rigid land" PERFORMER "Britten" FLAGS DCP INDEX 00 01:38:27FILE "07 W H Auden settings- I. Night covers up the rigid land.flac" WAVE INDEX 01 00:00:00 TRACK 08 AUDIO TITLE "W H Auden settings: II. Fish in the Unruffled Lakes" PERFORMER "Britten" FLAGS DCP INDEX 00 02:29:28FILE "08 W H Auden settings- II. Fish in the Unruffled Lakes.flac" WAVE INDEX 01 00:00:00 TRACK 09 AUDIO TITLE "W H Auden settings: III. To lie flat on the back with the knees flexed" PERFORMER "Britten" FLAGS DCP INDEX 00 02:43:50FILE "09 W H Auden settings- III. To lie flat on the back with the knees flexed.flac" WAVE INDEX 01 00:00:00 TRACK 10 AUDIO TITLE "The Red Cockatoo and other songs: I. A Poison Tree" PERFORMER "Britten" FLAGS DCP INDEX 00 02:19:14FILE "10 The Red Cockatoo and other songs- I. A Poison Tree.flac" WAVE INDEX 01 00:00:00 TRACK 11 AUDIO TITLE "The Red Cockatoo and other songs: II. When you're feeling like expressing you..." PERFORMER "Britten" FLAGS DCP INDEX 00 02:49:53FILE "11 The Red Cockatoo and other songs- II. When you're feeling like expressing your affection.flac" WAVE INDEX 01 00:00:00 TRACK 12 AUDIO TITLE "The Red Cockatoo and other songs: III. Not even summer yet" PERFORMER "Britten" FLAGS DCP INDEX 00 00:36:30FILE "12 The Red Cockatoo and other songs- III. Not even summer yet.flac" WAVE INDEX 01 00:00:00 TRACK 13 AUDIO TITLE "The Red Cockatoo and other songs: IV. The Red Cockatoo" PERFORMER "Britten" FLAGS DCP INDEX 00 01:38:48FILE "13 The Red Cockatoo and other songs- IV. The Red Cockatoo.flac" WAVE INDEX 01 00:00:00 TRACK 14 AUDIO TITLE "The Red Cockatoo and other songs: V. Wild with passion" PERFORMER "Britten" FLAGS DCP INDEX 00 00:33:42FILE "14 The Red Cockatoo and other songs- V. Wild with passion.flac" WAVE INDEX 01 00:00:00 TRACK 15 AUDIO TITLE "The Red Cockatoo and other songs: VI. If thou wilt ease thine heart" PERFORMER "Britten" FLAGS DCP INDEX 00 02:18:60FILE "15 The Red Cockatoo and other songs- VI. If thou wilt ease thine heart.flac" WAVE INDEX 01 00:00:00 TRACK 16 AUDIO TITLE "The Red Cockatoo and other songs: VII. Cradle Song for Eleanor" PERFORMER "Britten" FLAGS DCP INDEX 00 01:44:28FILE "16 The Red Cockatoo and other songs- VII. Cradle Song for Eleanor.flac" WAVE INDEX 01 00:00:00 TRACK 17 AUDIO TITLE "The Red Cockatoo and other songs: VIII. Birthday Song for Erwin" PERFORMER "Britten" FLAGS DCP INDEX 00 02:56:40FILE "17 The Red Cockatoo and other songs- VIII. Birthday Song for Erwin.flac" WAVE INDEX 01 00:00:00 TRACK 18 AUDIO TITLE "The Red Cockatoo and other songs: IX. Um Mitternacht" PERFORMER "Britten" FLAGS DCP INDEX 00 01:17:62FILE "18 The Red Cockatoo and other songs- IX. Um Mitternacht.flac" WAVE INDEX 01 00:00:00 TRACK 19 AUDIO TITLE "The holy sonnets of John Donne: I. Oh my blacke Soule" PERFORMER "Britten" FLAGS DCP INDEX 00 03:34:00FILE "19 The holy sonnets of John Donne- I. Oh my blacke Soule.flac" WAVE INDEX 01 00:00:00 TRACK 20 AUDIO TITLE "The holy sonnets of John Donne: II. Batter my heart" PERFORMER "Britten" FLAGS DCP INDEX 00 03:05:17FILE "20 The holy sonnets of John Donne- II. Batter my heart.flac" WAVE INDEX 01 00:00:00 TRACK 21 AUDIO TITLE "The holy sonnets of John Donne: III. O might those sighes and teares" PERFORMER "Britten" FLAGS DCP INDEX 00 01:08:28FILE "21 The holy sonnets of John Donne- III. O might those sighes and teares.flac" WAVE INDEX 01 00:00:00 TRACK 22 AUDIO TITLE "The holy sonnets of John Donne: IV. Oh, to vex me" PERFORMER "Britten" FLAGS DCP INDEX 00 03:01:08FILE "22 The holy sonnets of John Donne- IV. Oh, to vex me.flac" WAVE INDEX 01 00:00:00 TRACK 23 AUDIO TITLE "The holy sonnets of John Donne: V. What if this present" PERFORMER "Britten" FLAGS DCP INDEX 00 00:57:25FILE "23 The holy sonnets of John Donne- V. What if this present.flac" WAVE INDEX 01 00:00:00 TRACK 24 AUDIO TITLE "The holy sonnets of John Donne: VI. Since she whom I loved" PERFORMER "Britten" FLAGS DCP INDEX 00 02:48:32FILE "24 The holy sonnets of John Donne- VI. Since she whom I loved.flac" WAVE INDEX 01 00:00:00 TRACK 25 AUDIO TITLE "The holy sonnets of John Donne: VII. At the round earth's imagined corners" PERFORMER "Britten" FLAGS DCP INDEX 00 03:20:32FILE "25 The holy sonnets of John Donne- VII. At the round earth's imagined corners.flac" WAVE INDEX 01 00:00:00 TRACK 26 AUDIO TITLE "The holy sonnets of John Donne: VIII. Thou hast made me" PERFORMER "Britten" FLAGS DCP INDEX 00 02:35:08FILE "26 The holy sonnets of John Donne- VIII. Thou hast made me.flac" WAVE INDEX 01 00:00:00 TRACK 27 AUDIO TITLE "The holy sonnets of John Donne: IX. Death, be not proud" PERFORMER "Britten" FLAGS DCP INDEX 00 01:17:73FILE "27 The holy sonnets of John Donne- IX. Death, be not proud.flac" WAVE INDEX 01 00:00:00



Показать сообщения:    

Текущее время: 06-Дек 17:10

Часовой пояс: UTC + 3


Вы не можете начинать темы
Вы не можете отвечать на сообщения
Вы не можете редактировать свои сообщения
Вы не можете удалять свои сообщения
Вы не можете голосовать в опросах
Вы не можете прикреплять файлы к сообщениям
Вы не можете скачивать файлы