(Classical) Dmitri Shostakovich /Шостакович - Complete Songs Vol. 5 ( Шумачова, Тарасова,Плужников , Кузнецов, Серов) - 2005, FLAC (image+.cue) lossless


 

[Цитировать]

Dmitri Shostakovich /Шостакович - Complete Songs Vol. 5
Жанр: Classical
Страна-производитель диска: USA
Год издания диска: 2005
Издатель (лейбл): Delos International
Номер по каталогу: DE 3317
Дата записи: 2005
Аудиокодек: FLAC
Тип рипа: image+.cue
Битрейт аудио: lossless
Продолжительность: 60:03
Источник: скачано с AwaxHome
Наличие сканов в содержимом раздачи: нет
Треклист:
FROM JEWISH FOLK POETRY, Op.79:
01.-- Lament For A Dead Baby (Russian trans. by T. Spendiarova) [0:02:50.51]
02. -- Caring For Mum And Auntie (Russian trans. by A.Globa) [0:01:56.47]
03. -- Lullaby (Russian trans. by V. Zvyagintseva) [0:03:52.66]
04. -- Before A Long Separation (Russian trans. by A. Globa) [0:02:54.73]
05. -- Warning (Russian trans. by N. Ushakov) [0:01:07.60]
06. -- Father Abandoned (Russian trans. by S. Mar) [0:02:06.37]
07. -- Poverty Song (B. Shafir, Russian trans. by B. Semionov) [0:01:30.12]
08. -- Winter (Russian trans. by B. Semionov) [0:02:51.34]
09. -- Good Life (Russian trans. by S. Olender) [0:01:38.39]
10. -- A Girl's Song (Russian trans. by S. Olender) [0:02:30.52]
11. -- Happiness (Russian trans. by L. Dligach) [0:01:45.67]
SUITE ON VERSES BY MICHELANGELO BUONARROTTI, Op.145 (Russian trans. by A. Efros):
12. I. Truth [0:04:11.25]
13. II. Morning [0:02:48.18]
14. III. Love [0:04:09.63]
15. IV. Separation [0:02:05.67]
16. V. Anger [0:01:35.54]
17. VI. Dante [0:03:31.15]
18. VII. To the Exile [0:04:12.63]
19. VIII.Creativity [0:02:58.26]
20. IX. Night [0:03:55.33]
21. X. Death [0:04:45.20]
22. XI. Eternity [0:03:46.58]
Исполнители:
Svetlana Sumatchova, soprano
Marianna Tarassova mezzo-soprano
Konstantin Pluzhnikov,tenor
Fyodor Kuznetsov, bass
Yuri Serov, piano
Цикл состоит с 5 дисков

Лог создания рипа

Exact Audio Copy V1.0 beta 3 from 29. August 2011
EAC extraction logfile from 17. September 2013, 23:42
Dmitri Shostakovich / Complete Songs - Volume 5
Used drive : TSSTcorpCDDVDW SH-S223C Adapter: 2 ID: 1
Read mode : SecureUtilize accurate stream : YesDefeat audio cache : YesMake use of C2 pointers : No
Read offset correction : 697Overread into Lead-In and Lead-Out : NoFill up missing offset samples with silence : YesDelete leading and trailing silent blocks : NoNull samples used in CRC calculations : YesUsed interface : Native Win32 interface for Win NT & 2000
Used output format : User Defined EncoderSelected bitrate : 896 kBit/sQuality : HighAdd ID3 tag : NoCommand line compressor : C:\Program Files (x86)\Exact Audio Copy\FLAC\FLAC.EXEAdditional command line options : -V -0 -T "COMMENT=Ripped by Tapaz9" -T "artist=%artist%" -T "title=%title%" -T "album=%albumtitle%" -T "date=%year%" -T "tracknumber=%tracknr%" -T "genre=%genre%" %source%
TOC of the extracted CD
Track | Start | Length | Start sector | End sector---------------------------------------------------------1 | 0:00.00 | 2:50.51 | 0 | 128002 | 2:50.51 | 1:56.47 | 12801 | 215473 | 4:47.23 | 3:52.66 | 21548 | 390134 | 8:40.14 | 2:54.73 | 39014 | 521365 | 11:35.12 | 1:07.60 | 52137 | 572216 | 12:42.72 | 2:06.37 | 57222 | 667087 | 14:49.34 | 1:30.12 | 66709 | 734708 | 16:19.46 | 2:51.34 | 73471 | 863299 | 19:11.05 | 1:38.39 | 86330 | 9371810 | 20:49.44 | 2:30.52 | 93719 | 10502011 | 23:20.21 | 1:45.67 | 105021 | 11296212 | 25:06.13 | 4:11.25 | 112963 | 13181213 | 29:17.38 | 2:48.18 | 131813 | 14443014 | 32:05.56 | 4:09.63 | 144431 | 16316815 | 36:15.44 | 2:05.67 | 163169 | 17261016 | 38:21.36 | 1:35.54 | 172611 | 17978917 | 39:57.15 | 3:31.15 | 179790 | 19562918 | 43:28.30 | 4:12.63 | 195630 | 21459219 | 47:41.18 | 2:58.26 | 214593 | 22796820 | 50:39.44 | 3:55.33 | 227969 | 24562621 | 54:35.02 | 4:45.20 | 245627 | 26702122 | 59:20.22 | 3:46.58 | 267022 | 284029
Range status and errors
Selected range
Filename F:\Musique\Shostakovich, Dmitri\Shostakovich_CompleteSongsVol5\Dmitri Shostakovich - Complete Songs - Volume 5.wav
Peak level 97.9 %Extraction speed 14.0 XRange quality 100.0 %Copy CRC 3772FC09Copy OK
No errors occurred
End of status report
==== Log checksum 85257ABC95AA4E14F8353FC7AB6E7976DCAFDDC3DF3F98515400B7D86530ABC9 ====



Показать сообщения:    

Текущее время: 10-Дек 04:11

Часовой пояс: UTC + 3


Вы не можете начинать темы
Вы не можете отвечать на сообщения
Вы не можете редактировать свои сообщения
Вы не можете удалять свои сообщения
Вы не можете голосовать в опросах
Вы не можете прикреплять файлы к сообщениям
Вы не можете скачивать файлы