(Classical) Dmitri Shostakovich /Шостакович - Complete Songs Vol. 4 ( Евдотьева, Шкиртиль , Кузнецов, Луконин, Серов)(Молодежный камерный хор Санкт Петербурга -Юлия Хуторецкая) - 2004, FLAC (image+.cue) lossless


 

[Цитировать]

Dmitri Shostakovich /Шостакович - Complete Songs Vol. 4
Жанр: Classical
Страна-производитель диска: USA
Год издания диска: 2004
Издатель (лейбл): Delos International
Номер по каталогу: DE 3313
Дата записи: 2004
Аудиокодек: FLAC
Тип рипа: image+.cue
Битрейт аудио: lossless
Продолжительность: 55:01
Источник: скачано с AwaxHome
Треклист:
01. The Counter-Plan Song (Kornilov, from the film The Counter-Plan) [0:02:07.17]
02. Tender Girl Song (Vasillev, from the film The First Train) [0:02:37.10]
03. The Dawn is Rising (Dolmatovsky, from the film Meeting at the Elbe) [0:01:40.09]
04. The Song of Peace (Dolmatovsky, from the film The Fall of Berlin) [0:03:04.61]
TWO SONGS, Op.72 (Svetlov):
05.-- Lullaby [0:02:53.17]
06. -- The Little Lantern Song [0:02:10.61]
07. WE HAD KISSES (Dolmatovsky) [0:02:22.41]
08. SPRING, SPRING…, Op.128 (Pushkin) [0:02:25.02]
SATIRES, Op.109 (Pictures of The Past) (Chorny):
09. -- To a Critic [0:01:27.56]
10. -- The Awakening of Spring [0:02:48.25]
11. -- Descendants [0:02:12.15]
12. -- Confusion [0:05:11.64]
13. -- Kreutzer Sonata [0:04:14.36]
14. RAYOK (Anti-Formalist Peep-Show - Shostakovich) [0:19:51.51]
Исполнители:
Victoria Evtodieva, soprano
Liudmila Shkirtil, mezzo-soprano
Mikhail Lukonin, baritone
Fyodor Kuznetsov, bass
Yuri Serov, piano
St. Petersburg Youth Chamber Choir

Yulia Khutoretskaya,
artistic director & conductor

Лог создания рипа

Exact Audio Copy V1.0 beta 3 from 29. August 2011
EAC extraction logfile from 14. September 2013, 18:21
Dmitri Shostakovich / Complete Songs - Volume 4
Used drive : TSSTcorpCDDVDW SH-S223C Adapter: 2 ID: 1
Read mode : SecureUtilize accurate stream : YesDefeat audio cache : YesMake use of C2 pointers : No
Read offset correction : 697Overread into Lead-In and Lead-Out : NoFill up missing offset samples with silence : YesDelete leading and trailing silent blocks : NoNull samples used in CRC calculations : YesUsed interface : Native Win32 interface for Win NT & 2000
Used output format : User Defined EncoderSelected bitrate : 896 kBit/sQuality : HighAdd ID3 tag : NoCommand line compressor : C:\Program Files (x86)\Exact Audio Copy\FLAC\FLAC.EXEAdditional command line options : -V -0 -T "COMMENT=Ripped by Tapaz9" -T "artist=%artist%" -T "title=%title%" -T "album=%albumtitle%" -T "date=%year%" -T "tracknumber=%tracknr%" -T "genre=%genre%" %source%
TOC of the extracted CD
Track | Start | Length | Start sector | End sector---------------------------------------------------------1 | 0:00.00 | 2:07.17 | 0 | 95412 | 2:07.17 | 2:37.10 | 9542 | 213263 | 4:44.27 | 1:40.09 | 21327 | 288354 | 6:24.36 | 3:04.61 | 28836 | 426965 | 9:29.22 | 2:53.17 | 42697 | 556886 | 12:22.39 | 2:10.61 | 55689 | 654997 | 14:33.25 | 2:22.41 | 65500 | 761908 | 16:55.66 | 2:25.02 | 76191 | 870679 | 19:20.68 | 1:27.56 | 87068 | 9364810 | 20:48.49 | 2:48.25 | 93649 | 10627311 | 23:36.74 | 2:12.15 | 106274 | 11618812 | 25:49.14 | 5:11.64 | 116189 | 13957713 | 31:01.03 | 4:14.36 | 139578 | 15866314 | 35:15.39 | 19:51.51 | 158664 | 248039
Range status and errors
Selected range
Filename F:\Musique\Shostakovich, Dmitri\Shostakovich_CompleteSongsVol4\Dmitri Shostakovich - Complete Songs - Volume 4.wav
Peak level 89.5 %Extraction speed 14.7 XRange quality 100.0 %Copy CRC 51C29A77Copy OK
No errors occurred
End of status report
==== Log checksum BFFB4D7D81CF2EA2008622CEF5ADBF51D02ADCAC648ECE9280B000E41593F7B2 ====



Показать сообщения:    

Текущее время: 07-Дек 19:25

Часовой пояс: UTC + 3


Вы не можете начинать темы
Вы не можете отвечать на сообщения
Вы не можете редактировать свои сообщения
Вы не можете удалять свои сообщения
Вы не можете голосовать в опросах
Вы не можете прикреплять файлы к сообщениям
Вы не можете скачивать файлы