(Classical) Dmitri Shostakovich /Шостакович - Complete Songs Vol. 3(Кузнецов, Евдотьева, Шкиртиль , Молокина, Луконин, Серов) - 2003, (image+.cue) lossless


 

[Цитировать]

Dmitri Shostakovich /Шостакович - Complete Songs Vol. 3
Жанр: Classical
Страна-производитель диска: USA
Год издания диска: 2003
Издатель (лейбл): Delos International
Номер по каталогу: DE 3309
Дата записи: 2003
Тип рипа: image+.cue
Битрейт аудио: lossless
Продолжительность: 62:30
Источник: скачано с AwaxHome
Наличие сканов в содержимом раздачи: нет
Треклист:
Two fables by Ivan Krylov
01. The Dragon Fly and the Ant [0:02:42.49]
02. The Donkey and the Nightingale [0:04:54.15]
Six Romances on lyrics by Japanese Poets
03. Love [0:02:44.42]
04. Before the Suicide [0:02:08.32]
05. An Immodest Glance [0:00:54.26]
06. The First and the Last Time [0:03:29.48]
07. Hopeless Love [0:02:20.56]
08. Death [0:02:22.52]
Four Romances to Words by A. S. Pushkin
09. Renaissance [0:02:24.74]
10. Weeping Bitterly [0:01:39.20]
11. Anticipation [0:02:45.07]
12. Stanzas [0:05:51.42]
13. Hamlet- Ophelia's Song [0:01:53.49]
King Lear
14. Cordelia's Ballad [0:02:23.18]
15. The Fool's Song [0:09:38.72]
Six Romances to verses of W. Raleigh
16. Sir Walter Raleigh to his Sonne [0:04:08.06]
17. Oh Wert Thou in the Cauld Blast [0:02:36.09]
18. Macpherson's Farewell [0:02:18.16]
19. Jenny [0:01:34.72]
20. Sonnet LXVI by W. Shakespeare [0:02:51.29]
21. The King's Campaign [0:00:48.09]
Исполнители:
Victoria Evtodieva, soprano
Liudmila Shkirtil, mezzo-soprano
Mikhail Lukonin, baritone
Fyodor Kuznetsov, bass
Yuri Serov, piano

Лог создания рипа

Exact Audio Copy V1.0 beta 3 from 29. August 2011
EAC extraction logfile from 13. September 2013, 10:06
Dmitri Shostakovich / Complete Songs - Volume 3
Used drive : TSSTcorpCDDVDW SH-S223C Adapter: 2 ID: 1
Read mode : SecureUtilize accurate stream : YesDefeat audio cache : YesMake use of C2 pointers : No
Read offset correction : 697Overread into Lead-In and Lead-Out : NoFill up missing offset samples with silence : YesDelete leading and trailing silent blocks : NoNull samples used in CRC calculations : YesUsed interface : Native Win32 interface for Win NT & 2000
Used output format : User Defined EncoderSelected bitrate : 896 kBit/sQuality : HighAdd ID3 tag : NoCommand line compressor : C:\Program Files (x86)\Exact Audio Copy\FLAC\FLAC.EXEAdditional command line options : -V -0 -T "COMMENT=Ripped by Tapaz9" -T "artist=%artist%" -T "title=%title%" -T "album=%albumtitle%" -T "date=%year%" -T "tracknumber=%tracknr%" -T "genre=%genre%" %source%
TOC of the extracted CD
Track | Start | Length | Start sector | End sector---------------------------------------------------------1 | 0:00.00 | 2:42.49 | 0 | 121982 | 2:42.49 | 4:54.15 | 12199 | 342633 | 7:36.64 | 2:44.42 | 34264 | 466054 | 10:21.31 | 2:08.32 | 46606 | 562375 | 12:29.63 | 0:54.26 | 56238 | 603136 | 13:24.14 | 3:29.48 | 60314 | 760367 | 16:53.62 | 2:20.56 | 76037 | 865928 | 19:14.43 | 2:22.52 | 86593 | 972949 | 21:37.20 | 2:24.74 | 97295 | 10816810 | 24:02.19 | 1:39.20 | 108169 | 11561311 | 25:41.39 | 2:45.07 | 115614 | 12799512 | 28:26.46 | 5:51.42 | 127996 | 15436213 | 34:18.13 | 1:53.49 | 154363 | 16288614 | 36:11.62 | 2:23.18 | 162887 | 17362915 | 38:35.05 | 9:38.72 | 173630 | 21705116 | 48:14.02 | 4:08.06 | 217052 | 23565717 | 52:22.08 | 2:36.09 | 235658 | 24736618 | 54:58.17 | 2:18.16 | 247367 | 25773219 | 57:16.33 | 1:34.72 | 257733 | 26485420 | 58:51.30 | 2:51.29 | 264855 | 27770821 | 61:42.59 | 0:48.09 | 277709 | 281317
Range status and errors
Selected range
Filename F:\Musique\Shostakovich, Dmitri\Shostakovich_CompleteSongsVol3\Dmitri Shostakovich - Complete Songs - Volume 3.wav
Peak level 99.4 %Extraction speed 13.9 XRange quality 100.0 %Copy CRC 438A98C9Copy OK
No errors occurred
End of status report
==== Log checksum 9A8348588CE3F19F96F7C9923338A8DA5AEF19C4810F75C96092B5DC88E4B56E ====



Показать сообщения:    

Текущее время: 07-Дек 00:54

Часовой пояс: UTC + 3


Вы не можете начинать темы
Вы не можете отвечать на сообщения
Вы не можете редактировать свои сообщения
Вы не можете удалять свои сообщения
Вы не можете голосовать в опросах
Вы не можете прикреплять файлы к сообщениям
Вы не можете скачивать файлы