(Vocal/Classical/ Renaissance) The Terra Nova Consort - !Baylado! - Music of Renaissance Spain (Ensina, Milan, Comes, Mudarra, Anchieta, Vasquez, Ribayaz) (Pat O\'Scannell / Sue Carney) - 2001, APE (image+.cue) lossless


 

[Цитировать]

The Terra Nova Consort - !Baylado! - Music of Renaissance Spain
Жанр: Vocal/Classical/ Renaissance
Страна-производитель диска: USA
Год издания диска: 2001
Издатель (лейбл): Dorian Recordings
Номер по каталогу: DOR 90298
Дата записи: 2001
Аудиокодек: APE
Тип рипа: image+.cue
Битрейт аудио: lossless
Продолжительность: 63'31
Источник: собственный рип
Наличие сканов в содержимом раздачи: да
Треклист:
01. "Tan buen ganadico - Juan del Ensina"
02. "De el pobo - Traditional"
03. "La dicto Froilan Gomez - Anonymous"
04. "De la mata - Anonymous"
05. "Falai mina amor - Luys Milan"
06. "Baylado - J. B. Comes"
07. "Fata la parte - Juan del Ensina"
08. "Con pavor recordo el moro - Luys Milan"
09. "La tricotea Smartin - Alonso Mudarra(?)"
10. "Con Amores - Juan Anchieta"
11. "Los bracos traygo cansados - Juan Vasquez"
12. "Pase el agoa - Anonymous"
13. "Fantasia que contrahaze la harpa en la manera de Ludovico - Alonso Mudarra"
14. "Sospirastes Baldovinos - Luys Milan"
15. "El Gran Duque - Lucas Ruiz de Ribayaz"
16. "Ysabel - Alonso Mudarra"
17. "De Toril - Anonymous"
18. "Eres, Aqueda gloriosa 1 - Anonymous"
19. "No querades, fija - Anonymous"
20. "Eres, Agueda gloriosa 2 - Anonymous"Исполнители:
The Terra Nova Consort (voices)
Sue Carney - alto
Pat O'Scannell - mezzo soprano
Nicholas Tennant - baritone

Лог создания рипа

Exact Audio Copy V1.0 beta 3 from 29. August 2011
EAC extraction logfile from 17. September 2013, 22:17
The Terra Nova Consort / Baylado! - Music of Renaissance Spain
Used drive : TSSTcorpCDDVDW SH-216AB Adapter: 0 ID: 1
Read mode : SecureUtilize accurate stream : YesDefeat audio cache : YesMake use of C2 pointers : No
Read offset correction : 6Overread into Lead-In and Lead-Out : NoFill up missing offset samples with silence : YesDelete leading and trailing silent blocks : NoNull samples used in CRC calculations : YesUsed interface : Native Win32 interface for Win NT & 2000
Used output format : Monkey's Audio Lossless EncoderSelected bitrate : High Lossless CompressionQuality : HighAdd ID3 tag : YesCommand line compressor : K:\Program Files (x86)\Exact Audio Copy\Monkeys Audio\Monkey's Audio\MAC.exeAdditional command line options : -6 -V -T "ARTIST=%artist%" -T "TITLE=%title%" -T "ALBUM=%albumtitle%" -T "DATE=%year%" -T "TRACKNUMBER=%tracknr%" -T "GENRE=%genre%" -T "COMMENT=%comment%" -T "BAND=%albuminterpret%" -T "ALBUMARTIST=%albuminterpret%" -T "COMPOSER=%composer%" %haslyrics%--tag-from-file=LYRICS="%lyricsfile%"%haslyrics% -T "DISCNUMBER=%cdnumber%" -T "TOTALDISCS=%totalcds%" -T "TOTALTRACKS=%numtracks%" %hascover%--picture="%coverfile%"%hascover% %source% -o %dest%
TOC of the extracted CD
Track | Start | Length | Start sector | End sector --------------------------------------------------------- 1 | 0:00.00 | 3:52.67 | 0 | 17466 2 | 3:52.67 | 2:46.40 | 17467 | 29956 3 | 6:39.32 | 2:28.58 | 29957 | 41114 4 | 9:08.15 | 1:14.17 | 41115 | 46681 5 | 10:22.32 | 4:01.55 | 46682 | 64811 6 | 14:24.12 | 3:08.60 | 64812 | 78971 7 | 17:32.72 | 4:46.40 | 78972 | 100461 8 | 22:19.37 | 2:18.63 | 100462 | 110874 9 | 24:38.25 | 7:16.27 | 110875 | 143601 10 | 31:54.52 | 2:17.43 | 143602 | 153919 11 | 34:12.20 | 1:51.70 | 153920 | 162314 12 | 36:04.15 | 2:32.12 | 162315 | 173726 13 | 38:36.27 | 2:34.60 | 173727 | 185336 14 | 41:11.12 | 5:03.13 | 185337 | 208074 15 | 46:14.25 | 3:30.62 | 208075 | 223886 16 | 49:45.12 | 4:56.63 | 223887 | 246149 17 | 54:42.00 | 1:37.52 | 246150 | 253476 18 | 56:19.52 | 1:36.58 | 253477 | 260734 19 | 57:56.35 | 1:46.42 | 260735 | 268726 20 | 59:43.02 | 3:45.38 | 268727 | 285639
Range status and errors
Selected range
Filename I:\Foobar-EAC\The Terra Nova Consort - Baylado! - Music of Renaissance Spain.wav
Peak level 99.8 % Extraction speed 3.1 X Range quality 100.0 % Test CRC 888AA056 Copy CRC 888AA056 Copy OK
No errors occurred
AccurateRip summary
Track 1 accurately ripped (confidence 2) [B937EC6A] (AR v1)Track 2 accurately ripped (confidence 3) [6C12F627] (AR v1)Track 3 accurately ripped (confidence 3) [99BB1129] (AR v1)Track 4 accurately ripped (confidence 3) [4E45FFD8] (AR v1)Track 5 accurately ripped (confidence 3) [A2B21B9B] (AR v1)Track 6 accurately ripped (confidence 3) [A1502A25] (AR v1)Track 7 accurately ripped (confidence 3) [2024D507] (AR v1)Track 8 accurately ripped (confidence 3) [7FF862A7] (AR v1)Track 9 accurately ripped (confidence 3) [FEF14393] (AR v1)Track 10 accurately ripped (confidence 3) [2DC8C12F] (AR v1)Track 11 accurately ripped (confidence 3) [E17A5418] (AR v1)Track 12 accurately ripped (confidence 3) [5FFF37A4] (AR v1)Track 13 accurately ripped (confidence 3) [295C2F94] (AR v1)Track 14 accurately ripped (confidence 3) [93F60432] (AR v1)Track 15 accurately ripped (confidence 3) [92869D6A] (AR v1)Track 16 accurately ripped (confidence 3) [8B012C40] (AR v1)Track 17 accurately ripped (confidence 3) [EB900691] (AR v1)Track 18 accurately ripped (confidence 3) [8586315B] (AR v1)Track 19 accurately ripped (confidence 3) [C43754EB] (AR v1)Track 20 accurately ripped (confidence 3) [12BB2472] (AR v1)
All tracks accurately ripped
End of status report
==== Log checksum 28113921AFE12A77583B8AC584E2CF06233C510F9F4652ECDD3C35509FB143D2 ====

Содержание индексной карты (.CUE)

REM GENRE FlamencoREM DATE 2001REM DISCID 1F0EE014REM COMMENT "ExactAudioCopy v1.0b3"PERFORMER "The Terra Nova Consort"TITLE "Baylado! - Music of Renaissance Spain"FILE "The Terra Nova Consort - Baylado! - Music of Renaissance Spain.ape" WAVE TRACK 01 AUDIO TITLE "Tan buen ganadico - Juan del Ensina" PERFORMER "The Terra Nova Consort" INDEX 01 00:00:00 TRACK 02 AUDIO TITLE "De el pobo - Traditional" PERFORMER "The Terra Nova Consort" INDEX 01 03:52:67 TRACK 03 AUDIO TITLE "La dicto Froilan Gomez - Anonymous" PERFORMER "The Terra Nova Consort" INDEX 01 06:39:32 TRACK 04 AUDIO TITLE "De la mata - Anonymous" PERFORMER "The Terra Nova Consort" INDEX 01 09:08:15 TRACK 05 AUDIO TITLE "Falai mina amor - Luys Milan" PERFORMER "The Terra Nova Consort" INDEX 01 10:22:32 TRACK 06 AUDIO TITLE "Baylado - J. B. Comes" PERFORMER "The Terra Nova Consort" INDEX 01 14:24:12 TRACK 07 AUDIO TITLE "Fata la parte - Juan del Ensina" PERFORMER "The Terra Nova Consort" INDEX 01 17:32:72 TRACK 08 AUDIO TITLE "Con pavor recordo el moro - Luys Milan" PERFORMER "The Terra Nova Consort" INDEX 01 22:19:37 TRACK 09 AUDIO TITLE "La tricotea Smartin - Alonso Mudarra(?)" PERFORMER "The Terra Nova Consort" INDEX 01 24:38:25 TRACK 10 AUDIO TITLE "Con Amores - Juan Anchieta" PERFORMER "The Terra Nova Consort" INDEX 01 31:54:52 TRACK 11 AUDIO TITLE "Los bracos traygo cansados - Juan Vasquez" PERFORMER "The Terra Nova Consort" INDEX 01 34:12:20 TRACK 12 AUDIO TITLE "Pase el agoa - Anonymous" PERFORMER "The Terra Nova Consort" INDEX 01 36:04:15 TRACK 13 AUDIO TITLE "Fantasia que contrahaze la harpa en la manera de Ludovico - Alonso Mudarra" PERFORMER "The Terra Nova Consort" INDEX 01 38:36:27 TRACK 14 AUDIO TITLE "Sospirastes Baldovinos - Luys Milan" PERFORMER "The Terra Nova Consort" INDEX 01 41:11:12 TRACK 15 AUDIO TITLE "El Gran Duque - Lucas Ruiz de Ribayaz" PERFORMER "The Terra Nova Consort" INDEX 01 46:14:25 TRACK 16 AUDIO TITLE "Ysabel - Alonso Mudarra" PERFORMER "The Terra Nova Consort" INDEX 01 49:45:12 TRACK 17 AUDIO TITLE "De Toril - Anonymous" PERFORMER "The Terra Nova Consort" INDEX 01 54:42:00 TRACK 18 AUDIO TITLE "Eres, Aqueda gloriosa 1 - Anonymous" PERFORMER "The Terra Nova Consort" INDEX 01 56:19:52 TRACK 19 AUDIO TITLE "No querades, fija - Anonymous" PERFORMER "The Terra Nova Consort" INDEX 01 57:56:35 TRACK 20 AUDIO TITLE "Eres, Agueda gloriosa 2 - Anonymous" PERFORMER "The Terra Nova Consort" INDEX 01 59:43:02



Показать сообщения:    

Текущее время: 11-Дек 16:55

Часовой пояс: UTC + 3


Вы не можете начинать темы
Вы не можете отвечать на сообщения
Вы не можете редактировать свои сообщения
Вы не можете удалять свои сообщения
Вы не можете голосовать в опросах
Вы не можете прикреплять файлы к сообщениям
Вы не можете скачивать файлы