(Classical) Dmitri Shostakovich /Шостакович - Complete Songs Vol. 2 (Кузнецов, Евдотьева, Коваленко, Молокина, Соколова, Серов) - 2002, FLAC (image+.cue) lossless


 

[Цитировать]

Dmitri Shostakovich /Шостакович - Complete Songs Vol. 2
Жанр: Classical
Страна-производитель диска: USA
Год издания диска: 2002
Издатель (лейбл): Delos International
Номер по каталогу: DE 3307
Дата записи: 2002
Аудиокодек: FLAC
Тип рипа: image+.cue
Битрейт аудио: lossless
Продолжительность: 69:40
Источник: скачано с AwaxHome
Наличие сканов в содержимом раздачи: да
Треклист:
01. PREFACE TO THE COMPLETE EDITION OF MY WORKS AND THOUGHTS ABOUT THIS PREFACE, Op.123 [0:02:57.36]
FIVE ROMANCES ON TEXTS FROM KROKODIL MAGAZINE, Op.121:
02. -- Autographic Evidence [0:03:36.13]
03. -- A Hard Wish to Fulfil [0:01:16.13]
04. -- Discretion [0:01:29.27]
05. -- Irinka and the Shepherd [0:01:22.61]
06. -- Exaggerated Delight [0:01:44.39]
SEVEN SONGS ON POEMS BY ALEXANDER BLOK, Op.127:
07. --Ophelia's Song [0:03:13.02]
08. -- Gamauyn the Soothsaying Bird (Picture by V. Vasnetsov) [0:03:46.48]
09. -- We were together [0:02:58.74]
10. -- The city sleeps [0:03:13.48]
11. -- The Tempest [0:02:19.28]
12. -- Secret Signs [0:05:01.20]
13. -- Music [0:04:59.18]
SIX POEMS OF MARINA TSVETAYEVA, Op.143:
14. -- My Verses [0:02:58.63]
15. -- Whence all this tenderness? [0:03:24.10]
16. -- Dialogue between Hamlet and his conscience [0:02:55.24]
17. -- The Poet and the Czar [0:01:38.60]
18. -- No, the drum did beat [0:02:56.23]
19. -- To Anna Akhmatova [0:05:33.30]
FOUR VERSES BY CAPTAIN LEBYADKIN, Op.146:
20.-- Captain Lebyadkin's Love [0:04:15.65]
21. -- The Cockroach [0:03:48.00]
22. -- A costume ball for the benefit of governessess [0:02:07.47]
23. -- A luminous personality [0:02:02.39]
Исполнители:
Evtodieva - soprano
Sokolova - mezzo-soprano
Kuznetsov -bass
Serov - piano
Kovalenko - violin
Molokina - celo

Лог создания рипа

Exact Audio Copy V1.0 beta 3 from 29. August 2011
EAC extraction logfile from 29. August 2013, 23:48
Dmitri Shostakovich / Complete Songs Vol. 2 (Kuznetsov, Evtodieva, Kovalenko, Molokina, Sokolova, Serov)
Used drive : TSSTcorpCDDVDW SH-S223C Adapter: 2 ID: 1
Read mode : SecureUtilize accurate stream : YesDefeat audio cache : YesMake use of C2 pointers : No
Read offset correction : 697Overread into Lead-In and Lead-Out : NoFill up missing offset samples with silence : YesDelete leading and trailing silent blocks : NoNull samples used in CRC calculations : YesUsed interface : Native Win32 interface for Win NT & 2000
Used output format : User Defined EncoderSelected bitrate : 896 kBit/sQuality : HighAdd ID3 tag : NoCommand line compressor : C:\Program Files (x86)\Exact Audio Copy\FLAC\FLAC.EXEAdditional command line options : -V -0 -T "COMMENT=Ripped by Tapaz9" -T "artist=%artist%" -T "title=%title%" -T "album=%albumtitle%" -T "date=%year%" -T "tracknumber=%tracknr%" -T "genre=%genre%" %source%
TOC of the extracted CD
Track | Start | Length | Start sector | End sector---------------------------------------------------------1 | 0:00.00 | 2:57.36 | 0 | 133102 | 2:57.36 | 3:36.13 | 13311 | 295233 | 6:33.49 | 1:16.13 | 29524 | 352364 | 7:49.62 | 1:29.27 | 35237 | 419385 | 9:19.14 | 1:22.61 | 41939 | 481496 | 10:42.00 | 1:44.39 | 48150 | 559887 | 12:26.39 | 3:13.02 | 55989 | 704658 | 15:39.41 | 3:46.48 | 70466 | 874639 | 19:26.14 | 2:58.74 | 87464 | 10088710 | 22:25.13 | 3:13.48 | 100888 | 11541011 | 25:38.61 | 2:19.28 | 115411 | 12586312 | 27:58.14 | 5:01.20 | 125864 | 14845813 | 32:59.34 | 4:59.18 | 148459 | 17090114 | 37:58.52 | 2:58.63 | 170902 | 18431415 | 40:57.40 | 3:24.10 | 184315 | 19962416 | 44:21.50 | 2:55.24 | 199625 | 21277317 | 47:16.74 | 1:38.60 | 212774 | 22018318 | 48:55.59 | 2:56.23 | 220184 | 23340619 | 51:52.07 | 5:33.30 | 233407 | 25841120 | 57:25.37 | 4:15.65 | 258412 | 27760121 | 61:41.27 | 3:48.00 | 277602 | 29470122 | 65:29.27 | 2:07.47 | 294702 | 30427323 | 67:36.74 | 2:02.39 | 304274 | 313462
Range status and errors
Selected range
Filename F:\Musique\Shostakovich, Dmitri\Shostakovich_CompleteSongsVol2\Dmitri Shostakovich - Complete Songs Vol. 2.wav
Peak level 99.9 %Extraction speed 13.6 XRange quality 100.0 %Copy CRC FD52EB0DCopy OK
No errors occurred
End of status report
==== Log checksum 94B6202C2EA3E44A9803D4C2BAA3C177B6BADB2957401799D11500E33C2C5CC9 ====



Показать сообщения:    

Текущее время: 04-Дек 09:04

Часовой пояс: UTC + 3


Вы не можете начинать темы
Вы не можете отвечать на сообщения
Вы не можете редактировать свои сообщения
Вы не можете удалять свои сообщения
Вы не можете голосовать в опросах
Вы не можете прикреплять файлы к сообщениям
Вы не можете скачивать файлы