(Classica) Dmitri Shostakovich /Шостакович - Complete Songs Vol. 1 (Бирюкова, Евтодьева, Кузнецов, Луконин, Серов) - 2002, FLAC (image+.cue) lossless


 

[Цитировать]

Dmitri Shostakovich - Complete Songs Vol. 1
Жанр: Classica
Страна-производитель диска: USA
Год издания диска: 2002
Издатель (лейбл): Delos International
Номер по каталогу: DE 3304
Дата записи: 2002
Аудиокодек: FLAC
Тип рипа: image+.cue
Битрейт аудио: lossless
Продолжительность: 71:00
Источник: скачано с AwaxHome
Наличие сканов в содержимом раздачи: да
Треклист:
TWO ROMANCES, Op.84 (Lermontov):
01. -- A Morning in the Caucasus [0:03:13.69]
02. -- Ballad [0:05:53.11]
FOUR SONGS, Op.86 (Dolmatovsky):
03.-- The Motherland hears [0:02:36.29]
04. -- Rescue me [0:02:11.45]
05. -- Loves - or loves not [0:02:12.63]
06. -- Lullaby [0:02:52.31]
FOUR MONOLOGUES, Op.91 (Pushkin):
07. -- A Fragment [0:05:54.15]
08. -- What's in my name to you?… [0:02:30.25]
09. -- In the depth of Siberian mines… [0:03:04.21]
10. -- Parting [0:02:33.19]
GREEK SONGS:
11. -- Forward! [0:02:19.08]
12. -- Penthosalis [0:01:42.02]
13. -- Zolongo (folk song) [0:03:42.45]
14. -- The Hymn of ELLAS [0:01:14.72]
FIVE SONGS, Op.98 (Dolmatovsky):
15. --The Day of Meeting [0:02:16.60]
16. -- The Day of Declaration [0:02:16.29]
17. -- The Day of Grievances [0:03:27.14]
18. -- The Day of Joy [0:02:07.33]
19. -- The Day of Memories [0:02:24.22]
SPANISH SONGS, Op.100:
20. Farewell to Granada [0:03:43.17]
21. -- Little Stars [0:02:07.48]
22. -- The First Time I Met You [0:03:36.42]
23. -- Ronda [0:01:59.54]
24. -- Black-Eyed Girl [0:02:44.38]
25. -- Dream [0:02:13.64]
Исполнители:
Biryukova - mezzo-soprano
Evtodieva - soprano
Kuznetsov - bass
Lukonin - baritone
Serov - piano

Лог создания рипа

Exact Audio Copy V1.0 beta 3 from 29. August 2011
EAC extraction logfile from 10. August 2013, 0:24
Dmitri Shostakovich / Complete Songs Vol. 1(Biryukova, Evtodieva, Kuznetsov, Lukonin, Serov)
Used drive : TSSTcorpCDDVDW SH-S223C Adapter: 2 ID: 1
Read mode : SecureUtilize accurate stream : YesDefeat audio cache : YesMake use of C2 pointers : No
Read offset correction : 697Overread into Lead-In and Lead-Out : NoFill up missing offset samples with silence : YesDelete leading and trailing silent blocks : NoNull samples used in CRC calculations : YesUsed interface : Native Win32 interface for Win NT & 2000
Used output format : User Defined EncoderSelected bitrate : 896 kBit/sQuality : HighAdd ID3 tag : NoCommand line compressor : C:\Program Files (x86)\Exact Audio Copy\FLAC\FLAC.EXEAdditional command line options : -V -0 -T "COMMENT=Ripped by Tapaz9" -T "artist=%artist%" -T "title=%title%" -T "album=%albumtitle%" -T "date=%year%" -T "tracknumber=%tracknr%" -T "genre=%genre%" %source%
TOC of the extracted CD
Track | Start | Length | Start sector | End sector---------------------------------------------------------1 | 0:00.00 | 3:13.69 | 0 | 145432 | 3:13.69 | 5:53.11 | 14544 | 410293 | 9:07.05 | 2:36.29 | 41030 | 527584 | 11:43.34 | 2:11.45 | 52759 | 626285 | 13:55.04 | 2:12.63 | 62629 | 725916 | 16:07.67 | 2:52.31 | 72592 | 855227 | 19:00.23 | 5:54.15 | 85523 | 1120878 | 24:54.38 | 2:30.25 | 112088 | 1233629 | 27:24.63 | 3:04.21 | 123363 | 13718310 | 30:29.09 | 2:33.19 | 137184 | 14867711 | 33:02.28 | 2:19.08 | 148678 | 15911012 | 35:21.36 | 1:42.02 | 159111 | 16676213 | 37:03.38 | 3:42.45 | 166763 | 18345714 | 40:46.08 | 1:14.72 | 183458 | 18907915 | 42:01.05 | 2:16.60 | 189080 | 19933916 | 44:17.65 | 2:16.29 | 199340 | 20956817 | 46:34.19 | 3:27.14 | 209569 | 22510718 | 50:01.33 | 2:07.33 | 225108 | 23466519 | 52:08.66 | 2:24.22 | 234666 | 24548720 | 54:33.13 | 3:43.17 | 245488 | 26222921 | 58:16.30 | 2:07.48 | 262230 | 27180222 | 60:24.03 | 3:36.42 | 271803 | 28804423 | 64:00.45 | 1:59.54 | 288045 | 29702324 | 66:00.24 | 2:44.38 | 297024 | 30936125 | 68:44.62 | 2:13.64 | 309362 | 319400
Range status and errors
Selected range
Filename F:\Musique\Shostakovich, Dmitri\Shostakovich_CompleteSongsVol1\Dmitri Shostakovich - Complete Songs Vol. 1(Biryukova, Evtodieva, Kuznetsov, Lukonin, Serov).wav
Peak level 98.9 %Extraction speed 13.7 XRange quality 100.0 %Copy CRC 9D14E64CCopy OK
No errors occurred
End of status report
==== Log checksum E5C81A1E1107B660FBD27F83FB9E30427213FBD815A14CFAE7C06AFE64D6E6AB ====

обратка




Показать сообщения:    

Текущее время: 10-Дек 04:12

Часовой пояс: UTC + 3


Вы не можете начинать темы
Вы не можете отвечать на сообщения
Вы не можете редактировать свои сообщения
Вы не можете удалять свои сообщения
Вы не можете голосовать в опросах
Вы не можете прикреплять файлы к сообщениям
Вы не можете скачивать файлы