(Classical/Vocal/Lied) Валентин Сильвестров / Valentin Silvestrov - Музыка поэзии для сопрано и фортепиано / Музика поезії / Die Musik der Poesie (2006-2011) (Инна Галатенко, Роман Репка) - 2013, FLAC (image+.cue) lossless


 

[Цитировать]

Валентин Сильвестров - Музыка поэзии (2006-2011)
Жанр: Classical/Vocal/Lied
Страна-производитель диска: Украина
Год издания диска: 2013
Издатель (лейбл): Interval (Ukrainian Records)
Номер по каталогу: нет
Дата записи: 2013
Аудиокодек: FLAC
Тип рипа: image+.cue
Битрейт аудио: lossless
Продолжительность: 75'20
Источник: собственный рип
Наличие сканов в содержимом раздачи: да
Треклист:
01. Пастораль и элегия на стихи Константина Батюшкова [4:54]
Пастораль для фортепиано соло
Элегия. О, память сердца! Ты сильней...
02. «Музыка». На стихи Александра Блока [4:14]
03. Две песни на стихи Юргиса Балтрушайтиса и Эмили Дикинсон [6:13]
Песочные часы /Балтрушайтис/
Элегия /Дикинсон/
04. Две песни на стихи Александра Блока и Алексея Константиновича Толстого [5:49]
Приближается звук /Блок/
Не ветер, вея с высоты... /Толстой/
05. Три песни на стихи Александра Пушкина [8:59]
Дар напрасный, дар случайный
Я помню чудное мгновенье
Фонтану Бахчисарайского дворца
06. Две песни на стихи Александра Пушкина [3:14]
Три ключа
Лишь розы увядают
07. Две песни на стихи Алексея Кольцова и Александра Пушкина [6:12]
На заре туманной юности (Разлука) /Кольцов/
Редеет облаков летучая гряда /Пушкин/
08. Три песни на стихи Анны Ахматовой, Юргиса Балтрушайтиса и Александра Блока [11:33]
Чакона /Ахматова/
Карусель /Балтрушайтис/
Элегия /Блок/
09. Две песни на стихи Пауля Целана [3:51]
Я могу тебя еще видеть (Из книги «Неотвратимость света» (1970))
В шорохах, как наше начало (Из книги «Солнечные нити» (1968))
10. Три песни на стихи Афанасия Фета [8:24]
К жаворонку
Сад весь в цвету
Как нежишь ты, серебряная ночь
11. «Тихая ода» на стихи Сергея Вакуленко [4:09]
12. «Прощай» на стихи Джона Китса [5:14]
13. «Элегия» на стихи Григория Гурьева («Утоли мои печали...») [2:34]
Исполнители:
Инна Галатенко, сопрано
Роман Репка, фортепиано

Лог создания рипа

Exact Audio Copy V1.0 beta 3 from 29. August 2011
Отчёт EAC об извлечении, выполненном 1. октября 2013, 0:36
Inna Galatenko, Roman Repka / Valentin Silvestrov - Die Musik der Poesie (2006-2011)
Дисковод: HL-DT-STDVDRAM GT33N Adapter: 1 ID: 0
Режим чтения : ДостоверностьИспользование точного потока : ДаОтключение кэша аудио : ДаИспользование указателей C2 : Нет
Коррекция смещения при чтении : 103Способность читать области Lead-in и Lead-out : НетЗаполнение пропущенных сэмплов тишиной : ДаУдаление блоков с тишиной в начале и конце : НетПри вычислениях CRC использовались нулевые сэмплы : ДаИнтерфейс : Встроенный Win32-интерфейс для Win NT/2000
Выходной формат : Пользовательский кодировщикВыбранный битрейт : 1024 kBit/sКачество : ВысокийДобавление ID3-тега : ДаУтилита сжатия : C:\Program Files (x86)\Exact Audio Copy\Flac\flac.exeДополнительные параметры : -8 -V -T "ALBUMARTIST=%albumartist%" -T "ALBUM=%albumtitle%" -T "DATE=%year%" -T "TRACKTOTAL=%numtracks%" -T "GENRE=%genre%" -T "COMMENT=%comment%" -T "PERFORMER=%albuminterpret%" -T "COMPOSER=%composer%" %source% -o %dest%
TOC извлечённого CD
Трек | Старт | Длительность | Начальный сектор | Конечный сектор --------------------------------------------------------------------- 1 | 0:00.00 | 4:54.19 | 0 | 22068 2 | 4:54.19 | 4:14.07 | 22069 | 41125 3 | 9:08.26 | 6:12.41 | 41126 | 69066 4 | 15:20.67 | 5:49.11 | 69067 | 95252 5 | 21:10.03 | 8:59.00 | 95253 | 135677 6 | 30:09.03 | 3:14.00 | 135678 | 150227 7 | 33:23.03 | 6:12.06 | 150228 | 178133 8 | 39:35.09 | 11:32.56 | 178134 | 230089 9 | 51:07.65 | 3:51.24 | 230090 | 247438 10 | 54:59.14 | 8:23.48 | 247439 | 285211 11 | 63:22.62 | 4:09.10 | 285212 | 303896 12 | 67:31.72 | 5:14.05 | 303897 | 327451 13 | 72:46.02 | 2:34.33 | 327452 | 339034
Характеристики диапазона извлечения и сообщения об ошибках
Выбранный диапазон
Имя файла O:\!Rips\Valentin Silvestrov - Die Musik der Poesie (2006-2011).wav
Пиковый уровень 98.8 % Скорость извлечения 2.3 X Качество диапазона 100.0 % CRC теста 97020940 CRC копии 97020940 Копирование... OK
Ошибок не произошло
AccurateRip: сводка
Трек 1 отсутствует в базе данныхТрек 2 отсутствует в базе данныхТрек 3 отсутствует в базе данныхТрек 4 отсутствует в базе данныхТрек 5 отсутствует в базе данныхТрек 6 отсутствует в базе данныхТрек 7 отсутствует в базе данныхТрек 8 отсутствует в базе данныхТрек 9 отсутствует в базе данныхТрек 10 отсутствует в базе данныхТрек 11 отсутствует в базе данныхТрек 12 отсутствует в базе данныхТрек 13 отсутствует в базе данных
Ни одного трека нет в базе AccurateRip
Конец отчёта
==== Контрольная сумма отчёта CB31726E6CB598F956C85F6194E3377DEEB4A6E312462D267FBB7C1910EFEF5C ====

Содержание индексной карты (.CUE)

REM GENRE ClassicalREM DATE 2013REM DISCID A411A80DREM COMMENT "ExactAudioCopy v1.0b3"PERFORMER "Inna Galatenko, Roman Repka"TITLE "Valentin Silvestrov - Die Musik der Poesie (2006-2011)"FILE "Valentin Silvestrov - Die Musik der Poesie (2006-2011).flac" WAVE TRACK 01 AUDIO TITLE "Pastorale und Elegie nach einem Text von Konstantin Batjuskov" PERFORMER "Inna Galatenko, Roman Repka" INDEX 01 00:00:00 TRACK 02 AUDIO TITLE "Musik. Text von Aleksandr Blok" PERFORMER "Inna Galatenko, Roman Repka" INDEX 01 04:54:19 TRACK 03 AUDIO TITLE "Zwei Lieder nach Texten von Jurgis Baltrusajtis und Emily Dickinson" PERFORMER "Inna Galatenko, Roman Repka" INDEX 01 09:08:26 TRACK 04 AUDIO TITLE "Zwei Lieder nach Texten von Aleksandr Blok und Aleksej Konstantinovic Tolstoj" PERFORMER "Inna Galatenko, Roman Repka" INDEX 01 15:20:67 TRACK 05 AUDIO TITLE "Drei Lieder nach Texten von Aleksandr Puskin" PERFORMER "Inna Galatenko, Roman Repka" INDEX 01 21:10:03 TRACK 06 AUDIO TITLE "Zwei Lieder nach Texten von Aleksandr Puskin" PERFORMER "Inna Galatenko, Roman Repka" INDEX 01 30:09:03 TRACK 07 AUDIO TITLE "Zwei Lieder nach Texten von Aleksej Kol'cov und Aleksandr Puskin" PERFORMER "Inna Galatenko, Roman Repka" INDEX 01 33:23:03 TRACK 08 AUDIO TITLE "Drei Lieder nach Texten von Anna Achmatova, Jurgis Baltrusajtis und Aleksandr Blok" PERFORMER "Inna Galatenko, Roman Repka" INDEX 01 39:35:09 TRACK 09 AUDIO TITLE "Zwei Elegien nach Texten von Paul Celan" PERFORMER "Inna Galatenko, Roman Repka" INDEX 01 51:07:65 TRACK 10 AUDIO TITLE "Drei Lieder nach Texten von Afanasij Fet" PERFORMER "Inna Galatenko, Roman Repka" INDEX 01 54:59:14 TRACK 11 AUDIO TITLE "Stille Ode nach einem Text von Sergej Vakulenko" PERFORMER "Inna Galatenko, Roman Repka" INDEX 01 63:22:62 TRACK 12 AUDIO TITLE "Lebe wohl nach einem Text von John Keats" PERFORMER "Inna Galatenko, Roman Repka" INDEX 01 67:31:72 TRACK 13 AUDIO TITLE "Elegie. Lindre meine Sorge nach einem Text von Grigorij Gur'ev" PERFORMER "Inna Galatenko, Roman Repka" INDEX 01 72:46:02
Доп. информация: Презентация диска состоялась в Киеве 30.09.2013, в день рождения композитора.



Показать сообщения:    

Текущее время: 08-Дек 14:58

Часовой пояс: UTC + 3


Вы не можете начинать темы
Вы не можете отвечать на сообщения
Вы не можете редактировать свои сообщения
Вы не можете удалять свои сообщения
Вы не можете голосовать в опросах
Вы не можете прикреплять файлы к сообщениям
Вы не можете скачивать файлы