(baroque) Suzie Leblanc, Tragicomedia - Amor Roma (Roman Cantatas ca. 1640 by Rossi, Caproli, Michi, Carissimi, Eustachio & Mazzochi) - 1997, FLAC (image+.cue) lossless


 

[Цитировать]

Suzie Leblanc, Tragicomedia - Amor Roma (Roman Cantatas ca. 1640)
Жанр: baroque
Страна-производитель диска: EU
Год издания диска: 1997
Издатель (лейбл): Challenge Classics
Номер по каталогу: CC72055
Дата записи: 1997
Аудиокодек: FLAC
Тип рипа: image+.cue
Битрейт аудио: lossless
Продолжительность: 74:19
Источник: собственный рип
Наличие сканов в содержимом раздачи: буклет в pdf

Треклист

1. Luigi Rossi - A qual dardo il cor si deve
2. Carlo Caproli - Frondosi e verdi boschi
3. Orazio Michi - Spera mi disse amore
4. Luigi Rossi - Fanciulla son io
5. Anonymous - S`io son pazzo
6. Giovanni Girolamo Kapsberger - Prelude
7. Giacomo Carissimi - Piangete aure, piangete
8. Carlo Eustachio - Fiumicello che con l`onda
9. Luigi Rossi - Passacaglia
10. Luigi Rossi - La bella piu bella
11. Luigi Rossi - Un ferito cavaliero
12. Carlo Eustachio - Fiumicello che con l`onda (instr.)
13. Carlo Caproli - Di sue bellezze altera
14. Virgilio Mazzochi - Improvisation - Sdegno campion audace
15. Luigi Rossi - Mio core languisce

Исполнители

Suzie Leblanc, soprano
Tragicomedia:
Stephen Stubbs, chitarrone, lute, guitar
Erin Headley, viola da gamba, lirone
Paul O`Dette, archlute, guitar
Alexander Weimann, harpsichord

Лог создания рипа

Exact Audio Copy V0.99 prebeta 5 from 4. May 2009
EAC extraction logfile from 29. September 2013, 14:11
Suzie Leblanc, Tragicomedia / Amor Roma (Roman Cantatas ca.1640)
Used drive : HL-DT-STBDDVDRW CT30N Adapter: 0 ID: 2
Read mode : SecureUtilize accurate stream : YesDefeat audio cache : YesMake use of C2 pointers : No
Read offset correction : 102Overread into Lead-In and Lead-Out : NoFill up missing offset samples with silence : YesDelete leading and trailing silent blocks : NoNull samples used in CRC calculations : YesUsed interface : Native Win32 interface for Win NT & 2000
Used output format : User Defined EncoderSelected bitrate : 768 kBit/sQuality : HighAdd ID3 tag : NoCommand line compressor : C:\Program Files (x86)\Exact Audio Copy\FLAC\FLAC.EXEAdditional command line options : -6 -V -T "ARTIST=%a" -T "TITLE=%t" -T "ALBUM=%g" -T "DATE=%y" -T "TRACKNUMBER=%n" -T "GENRE=%m" -T "COMMENT=%e" %s -o %d
TOC of the extracted CD
Track | Start | Length | Start sector | End sector --------------------------------------------------------- 1 | 0:00.00 | 4:48.62 | 0 | 21661 2 | 4:48.62 | 6:13.35 | 21662 | 49671 3 | 11:02.22 | 4:48.68 | 49672 | 71339 4 | 15:51.15 | 2:54.37 | 71340 | 84426 5 | 18:45.52 | 2:05.35 | 84427 | 93836 6 | 20:51.12 | 1:00.23 | 93837 | 98359 7 | 21:51.35 | 8:38.62 | 98360 | 137271 8 | 30:30.22 | 4:59.63 | 137272 | 159759 9 | 35:30.10 | 2:01.62 | 159760 | 168896 10 | 37:31.72 | 3:22.43 | 168897 | 184089 11 | 40:54.40 | 10:48.40 | 184090 | 232729 12 | 51:43.05 | 4:59.20 | 232730 | 255174 13 | 56:42.25 | 6:55.22 | 255175 | 286321 14 | 63:37.47 | 5:30.53 | 286322 | 311124 15 | 69:08.25 | 5:10.57 | 311125 | 334431
Range status and errors
Selected range
Filename D:\Suzie Leblanc - Amor Roma\Suzie Leblanc, Tragicomedia - Amor Roma (Roman Cantatas ca.1640).wav
Peak level 99.6 % Range quality 99.9 % Copy CRC 9E93484B Copy OK
No errors occurred
AccurateRip summary
Track 1 not present in databaseTrack 2 not present in databaseTrack 3 not present in databaseTrack 4 not present in databaseTrack 5 not present in databaseTrack 6 not present in databaseTrack 7 not present in databaseTrack 8 not present in databaseTrack 9 not present in databaseTrack 10 not present in databaseTrack 11 not present in databaseTrack 12 not present in databaseTrack 13 not present in databaseTrack 14 not present in databaseTrack 15 not present in database
None of the tracks are present in the AccurateRip database
End of status report



Показать сообщения:    

Текущее время: 03-Дек 07:32

Часовой пояс: UTC + 3


Вы не можете начинать темы
Вы не можете отвечать на сообщения
Вы не можете редактировать свои сообщения
Вы не можете удалять свои сообщения
Вы не можете голосовать в опросах
Вы не можете прикреплять файлы к сообщениям
Вы не можете скачивать файлы