(Sacred) Zu S.Thomas: Missa in dedicatione ecclesia, Missa in festo S.Thomae Apostoli (Amarcord Vocal Ensemble) - 2012, FLAC (tracks+.cue) lossless


 

[Цитировать]

Amarcord - Zu S. Thomas
Жанр: Sacred
Страна-производитель диска: EU
Год издания диска: 2012
Издатель (лейбл): Raumklang
Номер по каталогу: RK AP 10112
Дата записи: 2011-2012
Аудиокодек: FLAC
Тип рипа: tracks+.cue
Битрейт аудио: lossless
Продолжительность: 01:10:00
Источник: скачано с avaxhome
Наличие сканов в содержимом раздачи: да
Треклист:
Missa in dedicatione ecclesia
01. - introitus: terribilis est [0:04:00.01]
02. - kyrie [0:04:10.21]
03. - gloria [0:03:49.56]
04. - graduale: locus iste [0:03:41.66]
05. - alleluia: vox exultationis [0:04:00.62]
06. - sequentia: psallat ecclesia [0:02:33.01]
07. - offertorium: domine deus [0:08:35.70]
08. - sanctus [0:01:51.08]
09. - agnus dei [0:01:42.70]
10. - communio: domus mea [0:05:16.16]
Missa in festo S. Thomae Apostoli
11. - introitus: mihi autem [0:03:44.98]
12. - kyrie [0:02:09.24]
13. - gloria [0:03:35.76]
14. - graduale: nimis honorati sunt [0:04:27.93]
15. - alleluia: per manus [0:02:15.52]
16. - sequentia: gaude felix india [0:04:34.97]
17. - offertorium: in omnem terram [0:01:25.72]
18. - sanctus [0:01:42.49]
19. - agnus dei [0:01:58.77]
20. - communio: amen dico vobis [0:04:33.33]
Исполнители:
Amarcord are:
Wolfram Lattke – tenor
Martin Lattke – tenor
Frank Ozimek – baritone
Daniel Knauft – bass
Holger Krause – bass

Лог создания рипа

Exact Audio Copy V1.0 beta 3 from 29. August 2011
EAC extraction logfile from 13. September 2013, 20:30
Amarcord / Zu S. Thomas
Used drive : TSSTcorpCDDVDW SH-216AB Adapter: 1 ID: 0
Read mode : SecureUtilize accurate stream : YesDefeat audio cache : YesMake use of C2 pointers : No
Read offset correction : 6Overread into Lead-In and Lead-Out : NoFill up missing offset samples with silence : YesDelete leading and trailing silent blocks : NoNull samples used in CRC calculations : YesUsed interface : Native Win32 interface for Win NT & 2000Gap handling : Appended to previous track
Used output format : User Defined EncoderSelected bitrate : 768 kBit/sQuality : HighAdd ID3 tag : NoCommand line compressor : C:\Program Files (x86)\Exact Audio Copy\FLAC\FLAC.EXEAdditional command line options : -6 -V -T "ARTIST=%artist%" -T "TITLE=%title%" -T "ALBUM=%albumtitle%" -T "DATE=%year%" -T "TRACKNUMBER=%tracknr%" -T "GENRE=%genre%" -T "COMMENT=%comment%" -T "BAND=%albuminterpret%" -T "ALBUMARTIST=%albuminterpret%" -T "COMPOSER=%composer%" %haslyrics%--tag-from-file=LYRICS="%lyricsfile%"%haslyrics% -T "DISCNUMBER=%cdnumber%" -T "TOTALDISCS=%totalcds%" -T "TOTALTRACKS=%numtracks%" %hascover%--picture="%coverfile%"%hascover% %source% -o %dest%
TOC of the extracted CD
Track | Start | Length | Start sector | End sector---------------------------------------------------------1 | 0:00.00 | 4:00.01 | 0 | 180002 | 4:00.01 | 4:10.16 | 18001 | 367663 | 8:10.17 | 3:49.42 | 36767 | 539834 | 11:59.59 | 3:41.50 | 53984 | 706085 | 15:41.34 | 4:00.47 | 70609 | 886556 | 19:42.06 | 2:33.01 | 88656 | 1001317 | 22:15.07 | 8:35.53 | 100132 | 1388098 | 30:50.60 | 1:51.06 | 138810 | 1471409 | 32:41.66 | 1:42.53 | 147141 | 15484310 | 34:24.44 | 5:16.12 | 154844 | 17855511 | 39:40.56 | 3:44.74 | 178556 | 19542912 | 43:25.55 | 2:09.18 | 195430 | 20512213 | 45:34.73 | 3:35.57 | 205123 | 22130414 | 49:10.55 | 4:27.70 | 221305 | 24139915 | 53:38.50 | 2:15.39 | 241400 | 25156316 | 55:54.14 | 4:34.73 | 251564 | 27218617 | 60:29.12 | 1:25.54 | 272187 | 27861518 | 61:54.66 | 1:42.37 | 278616 | 28630219 | 63:37.28 | 1:58.58 | 286303 | 29521020 | 65:36.11 | 4:33.25 | 295211 | 315710
Track 1
Filename C:\Users\astarte\03. POST\amarcord\01. Missa in dedicatione ecclesia - introitus- terribilis est.wav
Pre-gap length 0:00:02.00
Peak level 98.0 %Extraction speed 3.9 XTrack quality 99.9 %Copy CRC 0C5F70E0Track not present in AccurateRip databaseCopy OK
Track 2
Filename C:\Users\astarte\03. POST\amarcord\02. Missa in dedicatione ecclesia - kyrie.wav
Peak level 96.2 %Extraction speed 5.2 XTrack quality 100.0 %Copy CRC FBFEB812Track not present in AccurateRip databaseCopy OK
Track 3
Filename C:\Users\astarte\03. POST\amarcord\03. Missa in dedicatione ecclesia - gloria.wav
Peak level 98.8 %Extraction speed 5.6 XTrack quality 100.0 %Copy CRC E315DD6ETrack not present in AccurateRip databaseCopy OK
Track 4
Filename C:\Users\astarte\03. POST\amarcord\04. Missa in dedicatione ecclesia - graduale- locus iste.wav
Peak level 78.2 %Extraction speed 5.9 XTrack quality 100.0 %Copy CRC 68A5DB07Track not present in AccurateRip databaseCopy OK
Track 5
Filename C:\Users\astarte\03. POST\amarcord\05. Missa in dedicatione ecclesia - alleluia- vox exultationis.wav
Peak level 98.8 %Extraction speed 6.3 XTrack quality 100.0 %Copy CRC 59080133Track not present in AccurateRip databaseCopy OK
Track 6
Filename C:\Users\astarte\03. POST\amarcord\06. Missa in dedicatione ecclesia - sequentia- psallat ecclesia.wav
Peak level 98.8 %Extraction speed 6.1 XTrack quality 100.0 %Copy CRC F83C3369Track not present in AccurateRip databaseCopy OK
Track 7
Filename C:\Users\astarte\03. POST\amarcord\07. Missa in dedicatione ecclesia - offertorium- domine deus.wav
Peak level 98.8 %Extraction speed 7.6 XTrack quality 100.0 %Copy CRC DD56C591Track not present in AccurateRip databaseCopy OK
Track 8
Filename C:\Users\astarte\03. POST\amarcord\08. Missa in dedicatione ecclesia - sanctus.wav
Peak level 98.8 %Extraction speed 6.4 XTrack quality 100.0 %Copy CRC F426EFC1Track not present in AccurateRip databaseCopy OK
Track 9
Filename C:\Users\astarte\03. POST\amarcord\09. Missa in dedicatione ecclesia - agnus dei.wav
Peak level 77.5 %Extraction speed 6.3 XTrack quality 100.0 %Copy CRC EDB92102Track not present in AccurateRip databaseCopy OK
Track 10
Filename C:\Users\astarte\03. POST\amarcord\10. Missa in dedicatione ecclesia - communio- domus mea.wav
Peak level 86.9 %Extraction speed 8.0 XTrack quality 100.0 %Copy CRC 16BCAD9ATrack not present in AccurateRip databaseCopy OK
Track 11
Filename C:\Users\astarte\03. POST\amarcord\11. Missa in festo S. Thomae Apostoli - introitus- mihi autem.wav
Pre-gap length 0:00:14.72
Peak level 78.9 %Extraction speed 8.0 XTrack quality 100.0 %Copy CRC 8101D826Track not present in AccurateRip databaseCopy OK
Track 12
Filename C:\Users\astarte\03. POST\amarcord\12. Missa in festo S. Thomae Apostoli - kyrie.wav
Peak level 90.8 %Extraction speed 7.3 XTrack quality 100.0 %Copy CRC AE6786D8Track not present in AccurateRip databaseCopy OK
Track 13
Filename C:\Users\astarte\03. POST\amarcord\13. Missa in festo S. Thomae Apostoli - gloria.wav
Peak level 98.8 %Extraction speed 6.5 XTrack quality 99.9 %Copy CRC A81ADA2DTrack not present in AccurateRip databaseCopy OK
Track 14
Filename C:\Users\astarte\03. POST\amarcord\14. Missa in festo S. Thomae Apostoli - graduale- nimis honorati sunt.wav
Peak level 98.8 %Extraction speed 7.0 XTrack quality 99.9 %Copy CRC 2A66A773Track not present in AccurateRip databaseCopy OK
Track 15
Filename C:\Users\astarte\03. POST\amarcord\15. Missa in festo S. Thomae Apostoli - alleluia- per manus.wav
Peak level 76.4 %Extraction speed 7.4 XTrack quality 100.0 %Copy CRC CB5C52B6Track not present in AccurateRip databaseCopy OK
Track 16
Filename C:\Users\astarte\03. POST\amarcord\16. Missa in festo S. Thomae Apostoli - sequentia- gaude felix india.wav
Peak level 98.8 %Extraction speed 9.1 XTrack quality 100.0 %Copy CRC 4A8543F9Track not present in AccurateRip databaseCopy OK
Track 17
Filename C:\Users\astarte\03. POST\amarcord\17. Missa in festo S. Thomae Apostoli - offertorium- in omnem terram.wav
Peak level 67.1 %Extraction speed 7.3 XTrack quality 100.0 %Copy CRC 4AB398B0Track not present in AccurateRip databaseCopy OK
Track 18
Filename C:\Users\astarte\03. POST\amarcord\18. Missa in festo S. Thomae Apostoli - sanctus.wav
Peak level 98.8 %Extraction speed 7.8 XTrack quality 100.0 %Copy CRC 2366503BTrack not present in AccurateRip databaseCopy OK
Track 19
Filename C:\Users\astarte\03. POST\amarcord\19. Missa in festo S. Thomae Apostoli - agnus dei.wav
Peak level 98.8 %Extraction speed 8.1 XTrack quality 100.0 %Copy CRC E75E2B29Track not present in AccurateRip databaseCopy OK
Track 20
Filename C:\Users\astarte\03. POST\amarcord\20. Missa in festo S. Thomae Apostoli - communio- amen dico vobis.wav
Peak level 80.3 %Extraction speed 9.6 XTrack quality 100.0 %Copy CRC 10711578Track not present in AccurateRip databaseCopy OK
None of the tracks are present in the AccurateRip database
No errors occurred
End of status report
==== Log checksum 0F836196DE3EC598C7E813B1197E66A5B99D342818E7E0577FBA63F446DACA6E ====

Содержание индексной карты (.CUE)

REM GENRE ClassicalREM DATE 2013REM DISCID 25107114REM COMMENT "ExactAudioCopy v1.0b3"PERFORMER "Amarcord"TITLE "Zu S. Thomas"FILE "01. Missa in dedicatione ecclesia - introitus- terribilis est.wav" WAVE TRACK 01 AUDIO TITLE "Missa in dedicatione ecclesia - introitus: terribilis est" PERFORMER "Amarcord" ISRC DECD61210101 FLAGS DCP INDEX 01 00:00:00FILE "02. Missa in dedicatione ecclesia - kyrie.wav" WAVE TRACK 02 AUDIO TITLE "Missa in dedicatione ecclesia - kyrie" PERFORMER "Amarcord" ISRC DECD61210102 FLAGS DCP INDEX 01 00:00:00FILE "03. Missa in dedicatione ecclesia - gloria.wav" WAVE TRACK 03 AUDIO TITLE "Missa in dedicatione ecclesia - gloria" PERFORMER "Amarcord" ISRC DECD61210103 FLAGS DCP INDEX 01 00:00:00FILE "04. Missa in dedicatione ecclesia - graduale- locus iste.wav" WAVE TRACK 04 AUDIO TITLE "Missa in dedicatione ecclesia - graduale: locus iste" PERFORMER "Amarcord" ISRC DECD61210104 FLAGS DCP INDEX 01 00:00:00FILE "05. Missa in dedicatione ecclesia - alleluia- vox exultationis.wav" WAVE TRACK 05 AUDIO TITLE "Missa in dedicatione ecclesia - alleluia: vox exultationis" PERFORMER "Amarcord" ISRC DECD61210105 FLAGS DCP INDEX 01 00:00:00FILE "06. Missa in dedicatione ecclesia - sequentia- psallat ecclesia.wav" WAVE TRACK 06 AUDIO TITLE "Missa in dedicatione ecclesia - sequentia: psallat ecclesia" PERFORMER "Amarcord" ISRC DECD61210106 FLAGS DCP INDEX 01 00:00:00FILE "07. Missa in dedicatione ecclesia - offertorium- domine deus.wav" WAVE TRACK 07 AUDIO TITLE "Missa in dedicatione ecclesia - offertorium: domine deus" PERFORMER "Amarcord" ISRC DECD61210107 FLAGS DCP INDEX 01 00:00:00FILE "08. Missa in dedicatione ecclesia - sanctus.wav" WAVE TRACK 08 AUDIO TITLE "Missa in dedicatione ecclesia - sanctus" PERFORMER "Amarcord" ISRC DECD61210108 FLAGS DCP INDEX 01 00:00:00FILE "09. Missa in dedicatione ecclesia - agnus dei.wav" WAVE TRACK 09 AUDIO TITLE "Missa in dedicatione ecclesia - agnus dei" PERFORMER "Amarcord" ISRC DECD61210108 FLAGS DCP INDEX 01 00:00:00FILE "10. Missa in dedicatione ecclesia - communio- domus mea.wav" WAVE TRACK 10 AUDIO TITLE "Missa in dedicatione ecclesia - communio: domus mea" PERFORMER "Amarcord" ISRC DECD61210109 FLAGS DCP INDEX 01 00:00:00 TRACK 11 AUDIO TITLE "Missa in festo S. Thomae Apostoli - introitus: mihi autem" PERFORMER "Amarcord" ISRC DECD61210111 FLAGS DCP INDEX 00 05:01:33FILE "11. Missa in festo S. Thomae Apostoli - introitus- mihi autem.wav" WAVE INDEX 01 00:00:00FILE "12. Missa in festo S. Thomae Apostoli - kyrie.wav" WAVE TRACK 12 AUDIO TITLE "Missa in festo S. Thomae Apostoli - kyrie" PERFORMER "Amarcord" ISRC DECD61210112 FLAGS DCP INDEX 01 00:00:00FILE "13. Missa in festo S. Thomae Apostoli - gloria.wav" WAVE TRACK 13 AUDIO TITLE "Missa in festo S. Thomae Apostoli - gloria" PERFORMER "Amarcord" ISRC DECD61210113 FLAGS DCP INDEX 01 00:00:00FILE "14. Missa in festo S. Thomae Apostoli - graduale- nimis honorati sunt.wav" WAVE TRACK 14 AUDIO TITLE "Missa in festo S. Thomae Apostoli - graduale: nimis honorati sunt" PERFORMER "Amarcord" ISRC DECD61210114 FLAGS DCP INDEX 01 00:00:00FILE "15. Missa in festo S. Thomae Apostoli - alleluia- per manus.wav" WAVE TRACK 15 AUDIO TITLE "Missa in festo S. Thomae Apostoli - alleluia: per manus" PERFORMER "Amarcord" ISRC DECD61210115 FLAGS DCP INDEX 01 00:00:00FILE "16. Missa in festo S. Thomae Apostoli - sequentia- gaude felix india.wav" WAVE TRACK 16 AUDIO TITLE "Missa in festo S. Thomae Apostoli - sequentia: gaude felix india" PERFORMER "Amarcord" ISRC DECD61210116 FLAGS DCP INDEX 01 00:00:00FILE "17. Missa in festo S. Thomae Apostoli - offertorium- in omnem terram.wav" WAVE TRACK 17 AUDIO TITLE "Missa in festo S. Thomae Apostoli - offertorium: in omnem terram" PERFORMER "Amarcord" ISRC DECD61210117 FLAGS DCP INDEX 01 00:00:00FILE "18. Missa in festo S. Thomae Apostoli - sanctus.wav" WAVE TRACK 18 AUDIO TITLE "Missa in festo S. Thomae Apostoli - sanctus" PERFORMER "Amarcord" ISRC DECD61210118 FLAGS DCP INDEX 01 00:00:00FILE "19. Missa in festo S. Thomae Apostoli - agnus dei.wav" WAVE TRACK 19 AUDIO TITLE "Missa in festo S. Thomae Apostoli - agnus dei" PERFORMER "Amarcord" ISRC DECD61210119 FLAGS DCP INDEX 01 00:00:00FILE "20. Missa in festo S. Thomae Apostoli - communio- amen dico vobis.wav" WAVE TRACK 20 AUDIO TITLE "Missa in festo S. Thomae Apostoli - communio: amen dico vobis" PERFORMER "Amarcord" ISRC DECD61210120 FLAGS DCP INDEX 01 00:00:00

Лог проверки качества

AUDIOCHECKER v2.0 beta (build 457) - by Dester - opdester@freemail.hu~~~~~~~~~~~~~~~~~~~~~~~~~~~~~~~~~~-=== DO NOT EDIT THIS FILE! ===-
Path: ...\Новая папка
01 -=- 01. Missa in dedicatione ecclesia - introitus- terribilis est.flac -=- CDDA (58%)02 -=- 02. Missa in dedicatione ecclesia - kyrie.flac -=- CDDA (42%)03 -=- 03. Missa in dedicatione ecclesia - gloria.flac -=- CDDA (43%)04 -=- 04. Missa in dedicatione ecclesia - graduale- locus iste.flac -=- CDDA (54%)05 -=- 05. Missa in dedicatione ecclesia - alleluia- vox exultationis.flac -=- CDDA (43%)06 -=- 06. Missa in dedicatione ecclesia - sequentia- psallat ecclesia.flac -=- CDDA (87%)07 -=- 07. Missa in dedicatione ecclesia - offertorium- domine deus.flac -=- MPEG (90%)08 -=- 08. Missa in dedicatione ecclesia - sanctus.flac -=- CDDA (54%)09 -=- 09. Missa in dedicatione ecclesia - agnus dei.flac -=- CDDA (58%)10 -=- 10. Missa in dedicatione ecclesia - communio- domus mea.flac -=- CDDA (42%)11 -=- 11. Missa in festo S. Thomae Apostoli - introitus- mihi autem.flac -=- CDDA (58%)12 -=- 12. Missa in festo S. Thomae Apostoli - kyrie.flac -=- CDDA (54%)13 -=- 13. Missa in festo S. Thomae Apostoli - gloria.flac -=- CDDA (42%)14 -=- 14. Missa in festo S. Thomae Apostoli - graduale- nimis honorati sunt.flac -=- CDDA (43%)15 -=- 15. Missa in festo S. Thomae Apostoli - alleluia- per manus.flac -=- CDDA (58%)16 -=- 16. Missa in festo S. Thomae Apostoli - sequentia- gaude felix india.flac -=- CDDA (43%)17 -=- 17. Missa in festo S. Thomae Apostoli - offertorium- in omnem terram.flac -=- CDDA (86%)18 -=- 18. Missa in festo S. Thomae Apostoli - sanctus.flac -=- MPEG (90%)19 -=- 19. Missa in festo S. Thomae Apostoli - agnus dei.flac -=- CDDA (58%)20 -=- 20. Missa in festo S. Thomae Apostoli - communio- amen dico vobis.flac -=- CDDA (62%)
Summary 50,25% CDDA
51524628



Показать сообщения:    

Текущее время: 11-Дек 16:55

Часовой пояс: UTC + 3


Вы не можете начинать темы
Вы не можете отвечать на сообщения
Вы не можете редактировать свои сообщения
Вы не можете удалять свои сообщения
Вы не можете голосовать в опросах
Вы не можете прикреплять файлы к сообщениям
Вы не можете скачивать файлы