(Vocal) Михаил Кузмин - Александрийские песни • Духовные стихи (Мила Шкиртиль | Юрий Серов) - 2011, FLAC (image+.cue) lossless


 

[Цитировать]

Михаил Кузмин
Александрийские песни • Духовные стихи

Мила Шкиртиль | Юрий Серов
-
-
-
-
- Жанр: Vocal
Страна-производитель диска: Россия
Год издания диска: 2011
Издатель (лейбл): Northern Flowers
Дата записи: 2010/11
Аудиокодек: FLAC
Тип рипа: image+.cue
Битрейт аудио: lossless
Продолжительность: 59'55''
Источник: собственный рип
Наличие сканов в содержимом раздачи: да
Треклист:
Александрийские песни. Вторая тетрадь:
[1] I. Когда мне говорят 'Александрия'
[2] II. Когда утром выхожу из дома
[3] III. Ты - как у гадателя отрок
[4] IV. Когда я тебя в первый раз встретил
[5] V. Нас было четыре сетры
[6] VI. Четверо их
Первая тетрадь:
[7] I. Вечерний сумрак
[8] II. Сладко умереть
[9] III. Что ж делать
[10] IV. Я спрашивал
[11] V. Если б я был
[12] VI. Солнце, Солнце
Духовные стихи:
[13] I. Хождение Богородицы по мукам
[14] II. О старце и льве
[15] III. О разбойнике
[16] IV. Пустыня (раскольничий)
[17] V. Страшный суд
Исполнители:
Мила Шкиртиль - меццо-сопрано
Юрий Серов - фортепиано
-

Лог создания рипа

Exact Audio Copy V1.0 beta 3 from 29. August 2011
EAC extraction logfile from 10. August 2013, 21:12
Мила Шкиртиль, Юрий Серов / Mikhail Kuzmin - Alexandrian Songs, Sacred Verses
Used drive : TSSTcorpCDDVDW SN-208BB Adapter: 0 ID: 1
Read mode : SecureUtilize accurate stream : YesDefeat audio cache : YesMake use of C2 pointers : No
Read offset correction : 6Overread into Lead-In and Lead-Out : NoFill up missing offset samples with silence : YesDelete leading and trailing silent blocks : NoNull samples used in CRC calculations : YesUsed interface : Native Win32 interface for Win NT & 2000
Used output format : User Defined EncoderSelected bitrate : 1024 kBit/sQuality : HighAdd ID3 tag : NoCommand line compressor : C:\Program Files (x86)\FLAC\flac.exeAdditional command line options : -T "COMMENT=rip by el coronel, rutracker.org" -8 -V %source%
TOC of the extracted CD
Track | Start | Length | Start sector | End sector --------------------------------------------------------- 1 | 0:00.00 | 2:07.66 | 0 | 9590 2 | 2:07.66 | 1:28.65 | 9591 | 16255 3 | 3:36.56 | 1:22.24 | 16256 | 22429 4 | 4:59.05 | 1:30.40 | 22430 | 29219 5 | 6:29.45 | 3:58.21 | 29220 | 47090 6 | 10:27.66 | 3:42.09 | 47091 | 63749 7 | 14:10.00 | 2:00.20 | 63750 | 72769 8 | 16:10.20 | 2:43.10 | 72770 | 85004 9 | 18:53.30 | 3:16.02 | 85005 | 99706 10 | 22:09.32 | 1:56.20 | 99707 | 108426 11 | 24:05.52 | 3:35.32 | 108427 | 124583 12 | 27:41.09 | 2:36.66 | 124584 | 136349 13 | 30:18.00 | 10:17.67 | 136350 | 182691 14 | 40:35.67 | 5:39.61 | 182692 | 208177 15 | 46:15.53 | 4:43.56 | 208178 | 229458 16 | 50:59.34 | 4:14.44 | 229459 | 248552 17 | 55:14.03 | 4:40.51 | 248553 | 269603
Range status and errors
Selected range
Filename K:\Music\Kuzmin - Songs (Shkirtil)\Mikhail Kuzmin - Alexandrian Songs, Sacred Verses.wav
Peak level 98.7 % Extraction speed 3.3 X Range quality 100.0 % Test CRC AE3C2B88 Copy CRC AE3C2B88 Copy OK
No errors occurred
AccurateRip summary
Track 1 not present in databaseTrack 2 not present in databaseTrack 3 not present in databaseTrack 4 not present in databaseTrack 5 not present in databaseTrack 6 not present in databaseTrack 7 not present in databaseTrack 8 not present in databaseTrack 9 not present in databaseTrack 10 not present in databaseTrack 11 not present in databaseTrack 12 not present in databaseTrack 13 not present in databaseTrack 14 not present in databaseTrack 15 not present in databaseTrack 16 not present in databaseTrack 17 not present in database
None of the tracks are present in the AccurateRip database
End of status report
==== Log checksum CA71A8366370A676B97E9029E898D1F492B5CBF52C07FB95532A614DAFA61F03 ====

Содержание индексной карты (.CUE)

REM GENRE VocalREM DATE 2011REM DISCID D70E0A11REM COMMENT "ExactAudioCopy v1.0b3"PERFORMER "Мила Шкиртиль, Юрий Серов"TITLE "Mikhail Kuzmin - Alexandrian Songs, Sacred Verses"FILE "Mikhail Kuzmin - Alexandrian Songs, Sacred Verses.flac" WAVE TRACK 01 AUDIO TITLE "Александрийские песни. Вторая тетрадь: I. Когда мне говорят 'Александрия'" PERFORMER "Мила Шкиртиль, Юрий Серов" FLAGS DCP INDEX 01 00:00:00 TRACK 02 AUDIO TITLE "II. Когда утром выхожу из дома" PERFORMER "Мила Шкиртиль, Юрий Серов" FLAGS DCP INDEX 01 02:07:66 TRACK 03 AUDIO TITLE "III. Ты - как у гадателя отрок" PERFORMER "Мила Шкиртиль, Юрий Серов" FLAGS DCP INDEX 01 03:36:56 TRACK 04 AUDIO TITLE "IV. Когда я тебя в первый раз встретил" PERFORMER "Мила Шкиртиль, Юрий Серов" FLAGS DCP INDEX 01 04:59:05 TRACK 05 AUDIO TITLE "V. Нас было четыре сетры" PERFORMER "Мила Шкиртиль, Юрий Серов" FLAGS DCP INDEX 01 06:29:45 TRACK 06 AUDIO TITLE "VI. Четверо их" PERFORMER "Мила Шкиртиль, Юрий Серов" FLAGS DCP INDEX 01 10:27:66 TRACK 07 AUDIO TITLE "Первая тетрадь: I. Вечерний сумрак" PERFORMER "Мила Шкиртиль, Юрий Серов" FLAGS DCP INDEX 01 14:10:00 TRACK 08 AUDIO TITLE "II. Сладко умереть" PERFORMER "Мила Шкиртиль, Юрий Серов" FLAGS DCP INDEX 01 16:10:20 TRACK 09 AUDIO TITLE "III. Что ж делать" PERFORMER "Мила Шкиртиль, Юрий Серов" FLAGS DCP INDEX 01 18:53:30 TRACK 10 AUDIO TITLE "IV. Я спрашивал" PERFORMER "Мила Шкиртиль, Юрий Серов" FLAGS DCP INDEX 01 22:09:32 TRACK 11 AUDIO TITLE "V. Если б я был" PERFORMER "Мила Шкиртиль, Юрий Серов" FLAGS DCP INDEX 01 24:05:52 TRACK 12 AUDIO TITLE "VI. Солнце, Солнце" PERFORMER "Мила Шкиртиль, Юрий Серов" FLAGS DCP INDEX 01 27:41:09 TRACK 13 AUDIO TITLE "Духовные стихи: I. Хождение Богородицы по мукам" PERFORMER "Мила Шкиртиль, Юрий Серов" FLAGS DCP INDEX 01 30:18:00 TRACK 14 AUDIO TITLE "II. О старце и льве" PERFORMER "Мила Шкиртиль, Юрий Серов" FLAGS DCP INDEX 01 40:35:67 TRACK 15 AUDIO TITLE "III. О разбойнике" PERFORMER "Мила Шкиртиль, Юрий Серов" FLAGS DCP INDEX 01 46:15:53 TRACK 16 AUDIO TITLE "IV. Пустыня (раскольничий)" PERFORMER "Мила Шкиртиль, Юрий Серов" FLAGS DCP INDEX 01 50:59:34 TRACK 17 AUDIO TITLE "V. Страшный суд" PERFORMER "Мила Шкиртиль, Юрий Серов" FLAGS DCP INDEX 01 55:14:03
-Доп. информация: В очередной раз дуэт Милы Шкиртиль и Юрия Серова предлагает нам записи редких вокальных циклов композиторов ХХ века. На этот раз в центре их внимания поэт Михаил Кузмин. Известный нам как выдающийся литератор, Кузмин, однако, начинал именно как композитор, автор вокальных циклов на в том числе свои собственные стихи, которые он исполнял (аккомпанировал и пел) в кружке поэта Вячеслава Иванова. И за пятнадцать лет своего долитературного периода он написал не много, не мало около четырёхсот песен. Как ни странно, но первые хвалебные отзывы о нём со стороны музыкальных критиков как раз совпали с началом исключительно литературной эпохи его творчества.



Показать сообщения:    

Текущее время: 06-Дек 19:00

Часовой пояс: UTC + 3


Вы не можете начинать темы
Вы не можете отвечать на сообщения
Вы не можете редактировать свои сообщения
Вы не можете удалять свои сообщения
Вы не можете голосовать в опросах
Вы не можете прикреплять файлы к сообщениям
Вы не можете скачивать файлы