(Modern Academic) Anton Webern - Samtliche Werke fur Sopran und Instrumente (Dorothy Dorow; Schonberg-Ensemble - Reinbert De Leeuw) - 1989, APE (image+.cue) lossless


 

[Цитировать]

Anton Webern - Sämtliche Werke für Sopran und Instrumente (Dorothy Dorow; Schonberg-Ensemble - Reinbert De Leeuw) Жанр: Modern Academic
Страна-производитель диска: Germany
Год издания диска: 1989
Издатель (лейбл): Koch-Records (Koch Schwann Musica Mundi)
Дата записи: 1989
Аудиокодек: APE
Тип рипа: image+.cue
Битрейт аудио: lossless
Продолжительность: 0:44:06
Источник: собственный рип
Наличие сканов в содержимом раздачи: нет
Треклист:
1. Entflieht auf leichten Kähnen : op. 2 für gemischten Chor a cappella
2. Zwei Lieder op. 8 für Gesang und acht Instrumente
3. Drei Stücke für Streichquartett, Nr. II. Mässig (op. 9, no. 1) ; Schmerz, immer blick nach oben ; Fliessend (op. 9, no. 6)
4. Drei Lieder für Gesang und Orchester (1913/1914)
5. Vier Lieder op. 13 für Gesang und Orchester
6. Sechs Lieder op. 14 für Gesang, Klarinette, Bassklarinette, Violine und Violoncello
7. Fünf geistliche Lieder : op. 15 für Gesang und fünf Instrumente
8. Fünf Canons op. 16 : nach lateinischen Texten : für hohen Sopran, Klarinette und Bassklarinette
9. Drei Volkstexte : op. 17 für Gesang, Violine (oder Viola), Klarinette und Bassklarinette
10. Drei Lieder op. 18 für Gesang, Es-Klarinette und Gitarre
11. Zwei Lieder op. 19 für gemischten Chor mit Begleitung von Celesta, Gitarre, Violine, Klarinette, Bassklarinette
12. Entflieht auf leichten Kähnen : op. 2 für gemischten Chor mit Instrumental-Unterstützung (Version von 1914).
Исполнители:
Dorothy Dorow, soprano ; Netherlands Chamber Choir ; Schönberg Ensemble ; Reinbert De Leeuw, conductor.
-

CUE

PERFORMER "dorothy dorow"
TITLE "webern lieder"
FILE "CDImage.ape" WAVE
TRACK 01 AUDIO
TITLE "entflieht auf leichten kahnen"
INDEX 01 00:00:00
TRACK 02 AUDIO
TITLE "du der ich s nicht sage"
INDEX 01 02:46:30
TRACK 03 AUDIO
TITLE "du machst mich allein"
INDEX 01 03:50:05
TRACK 04 AUDIO
TITLE "drei stucke strichquartett- ma?ig"
INDEX 01 04:51:37
TRACK 05 AUDIO
TITLE "schmerz"
INDEX 01 05:29:70
TRACK 06 AUDIO
TITLE "flie?end"
INDEX 01 06:19:55
TRACK 07 AUDIO
TITLE "leise dufte"
INDEX 01 06:55:51
TRACK 08 AUDIO
TITLE "kunfttag 3"
INDEX 01 07:56:16
TRACK 09 AUDIO
TITLE "o sanftes gluhn"
INDEX 01 09:00:43
TRACK 10 AUDIO
TITLE "wiese im park"
INDEX 01 10:45:08
TRACK 11 AUDIO
TITLE "die einsame"
INDEX 01 13:13:29
TRACK 12 AUDIO
TITLE "in der fremde"
INDEX 01 14:27:34
TRACK 13 AUDIO
TITLE "ein winterabend"
INDEX 01 15:28:63
TRACK 14 AUDIO
TITLE "die sonne"
INDEX 01 17:38:51
TRACK 15 AUDIO
TITLE "abendland"
INDEX 01 19:08:73
TRACK 16 AUDIO
TITLE "abendland 2"
INDEX 01 20:23:03
TRACK 17 AUDIO
TITLE "abendland 3"
INDEX 01 21:43:33
TRACK 18 AUDIO
TITLE "nachts"
INDEX 01 23:17:33
TRACK 19 AUDIO
TITLE "gesang einer gefangenen amsel"
INDEX 01 23:54:51
TRACK 20 AUDIO
TITLE "das kreuz du musst es tragen"
INDEX 01 25:09:66
TRACK 21 AUDIO
TITLE "morgenlied"
INDEX 01 26:06:28
TRACK 22 AUDIO
TITLE "in gottes namen aufstehen"
INDEX 01 26:59:48
TRACK 23 AUDIO
TITLE "mein weg geht jetzt vorruber"
INDEX 01 27:57:36
TRACK 24 AUDIO
TITLE "fahr hin o seel"
INDEX 01 29:04:41
TRACK 25 AUDIO
TITLE "christus factus est"
INDEX 01 30:40:73
TRACK 26 AUDIO
TITLE "dormi jesu"
INDEX 01 31:06:38
TRACK 27 AUDIO
TITLE "crux fidelis"
INDEX 01 32:16:03
TRACK 28 AUDIO
TITLE "aspergus me"
INDEX 01 33:02:33
TRACK 29 AUDIO
TITLE "crucem tuam"
INDEX 01 33:27:06
TRACK 30 AUDIO
TITLE "armer sunder"
INDEX 01 33:52:56
TRACK 31 AUDIO
TITLE "liebste jungfrau"
INDEX 01 34:35:71
TRACK 32 AUDIO
TITLE "heiland unsere missetaten"
INDEX 01 35:34:51
TRACK 33 AUDIO
TITLE "schatzerl klein"
INDEX 01 36:10:43
TRACK 34 AUDIO
TITLE "erlosung"
INDEX 01 37:05:26
TRACK 35 AUDIO
TITLE "ave regina coelorum"
INDEX 01 38:03:71
TRACK 36 AUDIO
TITLE "wei? wie lilien"
INDEX 01 39:25:58
TRACK 37 AUDIO
TITLE "ziehn die schafe"
INDEX 01 40:24:06
TRACK 38 AUDIO
TITLE "entflieht auf leichten kahnen op.2"
INDEX 01 41:21:21

TAU

2366305343 466761500 dorothy dorow - webern lieder.wav
auCDtect: CD records authenticity detector, version 0.8.2
Copyright (c) 2004 Oleg Berngardt. All rights reserved.
Copyright (c) 2004 Alexander Djourik. All rights reserved.
------------------------------------------------------------
Processing file: [dorothy dorow - webern lieder.wav]
------------------------------------------------------------
This track looks like CDDA with probability 100%
------------------------------------------------------------
Final Conclusion:
------------------------------------------------------------
These tracks looks like CDDA with probability 100%

-
Доп.информация: рип (правильный насколько это было тогда возможно) сделан в "доисторические" времена, переделать (с логом) возможности нет. и я не знаю как поправить все эти умлауты, не ругайтесь сильно



Показать сообщения:    

Текущее время: 05-Дек 15:34

Часовой пояс: UTC + 3


Вы не можете начинать темы
Вы не можете отвечать на сообщения
Вы не можете редактировать свои сообщения
Вы не можете удалять свои сообщения
Вы не можете голосовать в опросах
Вы не можете прикреплять файлы к сообщениям
Вы не можете скачивать файлы