(Vocal/Filmmusic/Songs) Флейшман - Скрипка Ротшильда, Шостакович - Из еврейской народной поэзии (Лейферкус, Дядькова , Шагуч, Плужников - Г. Рождественский 1995) - 1996, APE (image+.cue) lossless


 

[Цитировать]

Флейшман - Скрипка Ротшильда, Шостакович - Из еврейской народной поэзии
Жанр: Vocal/Filmmusic/Songs
Страна-производитель диска: EC
Год издания диска: 1996
Издатель (лейбл): BMG Classics
Номер по каталогу: 09026 68434 2
Дата записи: 1995
Аудиокодек: APE
Тип рипа: image+.cue
Битрейт аудио: lossless
Продолжительность: 66'01
Источник: собственный рип
Наличие сканов в содержимом раздачи: да
Треклист
Вениамин Флейшман - Скрипка Ротшильда
1. : The Wedding Band
2. : What Are You Playing?...
3. : This Small Town Is Worse Than A Village.
4. : Band Music
5. : Do You Remember
6. : God Had Given Us A Little Girl...
7. : Band Music; Make That Trumpet Merrier!
8. : Down Here On Earth Everything Flies By So Fast!...
9. : Rothschild Runs Away
10. : Loss: One Coffin For Marfa Ivanova...
11. : If They Could Live Without Hatred Or Evil,...
12. : It's Better To Die.
13. : Be Kind To Me, Don't Hit Me!...
14. : Rothschild Plays The Violin
Дмитрий Шостакович - Из еврейской народной поэзии, Op.79A
15. : 1. Lament Over The Death Of A Small Child
16. : 2. The Loving Mama And Auntie
17. : 3. Cradle Song
18. : 4. Before A Long Separation
19. : 5. Warning
20. : 6. The Forsaken Father
21. : 7. The Song Of Want
22. : 8. Winter
23. : 9. The Good Life
24. : 10. A Girl's Song
25. : 11. HappinessИсполнители
Fleischmann, Rothschild's Violin - Shostakovich, From Jewish Folk Poetry
Sergei Leiferkus
Marina Shaguch
Larissa Diadkova
Konstantin Pluzhnikov
Rotterdam Philharmonic Orchestra
Gennadi Rozhdestvensky

Лог создания рипа

Exact Audio Copy V1.0 beta 3 from 29. August 2011
EAC extraction logfile from 5. August 2013, 17:24
Fleischmann, Rothschid's Violin / Shostakovich, From Jeweish Folk Poetry [Rozhdestvensky 1996]
Used drive : TSSTcorpCDDVDW SE-208AB Adapter: 1 ID: 0
Read mode : SecureUtilize accurate stream : YesDefeat audio cache : YesMake use of C2 pointers : No
Read offset correction : 6Overread into Lead-In and Lead-Out : NoFill up missing offset samples with silence : YesDelete leading and trailing silent blocks : NoNull samples used in CRC calculations : YesUsed interface : Native Win32 interface for Win NT & 2000
Used output format : Monkey's Audio Lossless EncoderSelected bitrate : High Lossless CompressionQuality : HighAdd ID3 tag : YesCommand line compressor : K:\Program Files (x86)\Exact Audio Copy\Monkeys Audio\Monkey's Audio\MAC.exeAdditional command line options : -6 -V -T "ARTIST=%artist%" -T "TITLE=%title%" -T "ALBUM=%albumtitle%" -T "DATE=%year%" -T "TRACKNUMBER=%tracknr%" -T "GENRE=%genre%" -T "COMMENT=%comment%" -T "BAND=%albuminterpret%" -T "ALBUMARTIST=%albuminterpret%" -T "COMPOSER=%composer%" %haslyrics%--tag-from-file=LYRICS="%lyricsfile%"%haslyrics% -T "DISCNUMBER=%cdnumber%" -T "TOTALDISCS=%totalcds%" -T "TOTALTRACKS=%numtracks%" %hascover%--picture="%coverfile%"%hascover% %source% -o %dest%
TOC of the extracted CD
Track | Start | Length | Start sector | End sector --------------------------------------------------------- 1 | 0:00.00 | 1:31.07 | 0 | 6831 2 | 1:31.07 | 1:27.30 | 6832 | 13386 3 | 2:58.37 | 4:45.50 | 13387 | 34811 4 | 7:44.12 | 2:03.08 | 34812 | 44044 5 | 9:47.20 | 2:56.55 | 44045 | 57299 6 | 12:44.00 | 2:01.55 | 57300 | 66429 7 | 14:45.55 | 1:34.17 | 66430 | 73496 8 | 16:19.72 | 2:46.30 | 73497 | 85976 9 | 19:06.27 | 1:36.53 | 85977 | 93229 10 | 20:43.05 | 7:47.60 | 93230 | 128314 11 | 28:30.65 | 2:03.67 | 128315 | 137606 12 | 30:34.57 | 4:08.73 | 137607 | 156279 13 | 34:43.55 | 1:38.37 | 156280 | 163666 14 | 36:22.17 | 5:00.00 | 163667 | 186166 15 | 41:22.17 | 2:33.63 | 186167 | 197704 16 | 43:56.05 | 2:24.30 | 197705 | 208534 17 | 46:20.35 | 2:27.22 | 208535 | 219581 18 | 48:47.57 | 3:04.25 | 219582 | 233406 19 | 51:52.07 | 1:18.60 | 233407 | 239316 20 | 53:10.67 | 2:07.55 | 239317 | 248896 21 | 55:18.47 | 1:35.48 | 248897 | 256069 22 | 56:54.20 | 2:32.15 | 256070 | 267484 23 | 59:26.35 | 1:37.00 | 267485 | 274759 24 | 61:03.35 | 3:13.15 | 274760 | 289249 25 | 64:16.50 | 1:44.70 | 289250 | 297119
Range status and errors
Selected range
Filename I:\Foobar-EAC\Fleischmann, Rothschid's Violin - Shostakovich, From Jeweish Folk Poetry [Rozhdestvensky 1996].wav
Peak level 100.0 % Extraction speed 2.1 X Range quality 100.0 % Test CRC DBBD038B Copy CRC DBBD038B Copy OK
No errors occurred
AccurateRip summary
Track 1 accurately ripped (confidence 2) [D59EF56E] (AR v2)Track 2 accurately ripped (confidence 2) [C7A03AF6] (AR v2)Track 3 accurately ripped (confidence 2) [6635D939] (AR v2)Track 4 accurately ripped (confidence 2) [30FDADA4] (AR v2)Track 5 accurately ripped (confidence 2) [5F5C4502] (AR v2)Track 6 accurately ripped (confidence 2) [5C3135F0] (AR v2)Track 7 accurately ripped (confidence 2) [4FC787E7] (AR v2)Track 8 accurately ripped (confidence 2) [ECDFD461] (AR v2)Track 9 accurately ripped (confidence 2) [5E0ECB81] (AR v2)Track 10 accurately ripped (confidence 2) [5444474A] (AR v2)Track 11 accurately ripped (confidence 2) [1EC0CC7D] (AR v2)Track 12 accurately ripped (confidence 2) [23E9E4A4] (AR v2)Track 13 accurately ripped (confidence 2) [7A267C63] (AR v2)Track 14 accurately ripped (confidence 2) [CCCB75D9] (AR v2)Track 15 accurately ripped (confidence 2) [7EBE98A0] (AR v2)Track 16 accurately ripped (confidence 2) [67C89E89] (AR v2)Track 17 accurately ripped (confidence 2) [5410B888] (AR v2)Track 18 accurately ripped (confidence 2) [45F352FD] (AR v2)Track 19 accurately ripped (confidence 2) [EAECEB0C] (AR v2)Track 20 accurately ripped (confidence 2) [C494A3B3] (AR v2)Track 21 accurately ripped (confidence 2) [D319125A] (AR v2)Track 22 accurately ripped (confidence 2) [5D2D4B03] (AR v2)Track 23 accurately ripped (confidence 2) [88FD3DA5] (AR v2)Track 24 accurately ripped (confidence 2) [01BA97EB] (AR v2)Track 25 accurately ripped (confidence 2) [607DEA50] (AR v2)
All tracks accurately ripped
End of status report
==== Log checksum 84BC5C0E88EFD775791E6214D66FC80A7BB43600800991466828C365C269F6CA ====

Содержание индексной карты (.CUE)

REM GENRE VocalREM DATE 1996REM DISCID 8D0F7919REM COMMENT "ExactAudioCopy v1.0b3"CATALOG 0000000000000PERFORMER "Fleischmann, Rothschid's Violin"TITLE "Shostakovich, From Jeweish Folk Poetry [Rozhdestvensky 1996]"FILE "Fleischmann, Rothschid's Violin - Shostakovich, From Jeweish Folk Poetry [Rozhdestvensky 1996].ape" WAVE TRACK 01 AUDIO TITLE "The Wedding Band" PERFORMER "Fleischmann, Rothschid's Violin" ISRC USBC19605615 INDEX 01 00:00:00 TRACK 02 AUDIO TITLE "'What are you playing?...'" PERFORMER "Fleischmann, Rothschid's Violin" ISRC USBC19605616 INDEX 01 01:31:07 TRACK 03 AUDIO TITLE "'This small town is worse than a village'" PERFORMER "Fleischmann, Rothschid's Violin" ISRC USBC19605617 INDEX 01 02:58:37 TRACK 04 AUDIO TITLE "Band Music" PERFORMER "Fleischmann, Rothschid's Violin" ISRC USBC19605618 INDEX 01 07:44:12 TRACK 05 AUDIO TITLE "'Do you remember Iakov, do you recall?'" PERFORMER "Fleischmann, Rothschid's Violin" ISRC USBC19605619 INDEX 01 09:47:20 TRACK 06 AUDIO TITLE "'God had given us a little girl...'" PERFORMER "Fleischmann, Rothschid's Violin" ISRC USBC19605620 INDEX 01 12:44:00 TRACK 07 AUDIO TITLE "Band Music: 'Make that trumpet merrier!'" PERFORMER "Fleischmann, Rothschid's Violin" ISRC USBC19605621 INDEX 01 14:45:55 TRACK 08 AUDIO TITLE "'Down here on earth everything flies byu so fast!...'" PERFORMER "Fleischmann, Rothschid's Violin" ISRC USBC19605622 INDEX 01 16:19:72 TRACK 09 AUDIO TITLE "Rothschild Runs Away" PERFORMER "Fleischmann, Rothschid's Violin" ISRC USBC19605622 INDEX 01 19:06:27 TRACK 10 AUDIO TITLE "'Loss: one coffing for Marfa Ivanova...'" PERFORMER "Fleischmann, Rothschid's Violin" ISRC USBC19605623 INDEX 01 20:43:05 TRACK 11 AUDIO TITLE "'If they could liove without hatred or evil...'" PERFORMER "Fleischmann, Rothschid's Violin" ISRC USBC19605624 INDEX 01 28:30:65 TRACK 12 AUDIO TITLE "'It's better to die'" PERFORMER "Fleischmann, Rothschid's Violin" ISRC USBC19605626 INDEX 01 30:34:57 TRACK 13 AUDIO TITLE "'Be kind to me, don't hit me!...'" PERFORMER "Fleischmann, Rothschid's Violin" ISRC USBC19605627 INDEX 01 34:43:55 TRACK 14 AUDIO TITLE "Rothschild Plays the Violin" PERFORMER "Fleischmann, Rothschid's Violin" ISRC USBC19605628 INDEX 01 36:22:17 TRACK 15 AUDIO TITLE "Lament over the Death of a small child" PERFORMER "Shostakovich, From Jeweish Folk Poetry" ISRC USBC19605629 INDEX 00 41:14:67 INDEX 01 41:22:17 TRACK 16 AUDIO TITLE "The loving Mama and Auntie" PERFORMER "Shostakovich, From Jeweish Folk Poetry" ISRC USBC19605629 INDEX 01 43:56:05 TRACK 17 AUDIO TITLE "Cradle Song" PERFORMER "Shostakovich, From Jeweish Folk Poetry" ISRC USBC19605631 INDEX 01 46:20:35 TRACK 18 AUDIO TITLE "Before a Long Separation" PERFORMER "Shostakovich, From Jeweish Folk Poetry" ISRC USBC19605632 INDEX 01 48:47:57 TRACK 19 AUDIO TITLE "Warning" PERFORMER "Shostakovich, From Jeweish Folk Poetry" ISRC USBC19605633 INDEX 01 51:52:07 TRACK 20 AUDIO TITLE "The Forsaken Father" PERFORMER "Shostakovich, From Jeweish Folk Poetry" ISRC USBC19605634 INDEX 01 53:10:67 TRACK 21 AUDIO TITLE "The Song of Want" PERFORMER "Shostakovich, From Jeweish Folk Poetry" ISRC USBC19605635 INDEX 01 55:18:47 TRACK 22 AUDIO TITLE "Winter" PERFORMER "Shostakovich, From Jeweish Folk Poetry" ISRC USBC19605636 INDEX 01 56:54:20 TRACK 23 AUDIO TITLE "The Good Life" PERFORMER "Shostakovich, From Jeweish Folk Poetry" ISRC USBC19605637 INDEX 01 59:26:35 TRACK 24 AUDIO TITLE "A Girl's Song" PERFORMER "Shostakovich, From Jeweish Folk Poetry" ISRC USBC19605638 INDEX 01 61:03:35 TRACK 25 AUDIO TITLE "Happiness" PERFORMER "Shostakovich, From Jeweish Folk Poetry" ISRC USBC19605639 INDEX 01 64:16:50



Показать сообщения:    

Текущее время: 11-Дек 01:28

Часовой пояс: UTC + 3


Вы не можете начинать темы
Вы не можете отвечать на сообщения
Вы не можете редактировать свои сообщения
Вы не можете удалять свои сообщения
Вы не можете голосовать в опросах
Вы не можете прикреплять файлы к сообщениям
Вы не можете скачивать файлы