(Classical) Pauline Viardot-Garsia - Das Lied der triumphierenden Liebe / Песнь торжествующей любви (Martina Geteck, Ulf Schneider, Stephan Imorde), 2CD - 2009, FLAC (image+.cue) lossless


 

[Цитировать]

Das Lied der triumphierenden Liebe (Martina Geteck, Ulf Schneider, Stephan Imorde) / 2CD
Жанр: Classical
Страна-производитель диска: Germany
Год издания диска: 2009
Издатель (лейбл): ARS MUSICI
Номер по каталогу: 232405-A, 232405-B
Аудиокодек: FLAC
Тип рипа: image+.cue
Битрейт аудио: lossless
Продолжительность: 63:31.60, 61:31.60
Источник: собственный рип
Наличие сканов в содержимом раздачи: да
Треклист:
DISC 1
1 - 3. Violin Sonatine in A minor
4. Das Lied der Triumphierenden Liebe: Chapter 1
5. 6 Morceaux: 6 Morceaux: No. 1. Romance
6. Das Lied der Triumphierenden Liebe: Chapter 2
7. 6 Morceaux: 6 Morceaux: No. 2. Bohemienne
8. Das Lied der Triumphierenden Liebe: Chapter 3
9. 6 Morceaux: 6 Morceaux: No. 5. Vieille Chanson
10. Das Lied der Triumphierenden Liebe: Chapter 4
11. Das Lied der Triumphierenden Liebe: Chapter 5
12. Das Lied der Triumphierenden Liebe: Chapter 6
13. 6 Morceaux: 6 Morceaux: No. 4. Mazourke
14. Das Lied der Triumphierenden Liebe: Chapter 7
15. Das Lied der Triumphierenden Liebe: Chapter 8
16. Romance in D major, Op. 6
DISC 2
1. Das Lied der Triumphierenden Liebe: Chapter 9
2. Das Lied der Triumphierenden Liebe: Chapter 10
3. 6 Morceaux: 6 Morceaux: No. 3. Berceuse
4. Das Lied der Triumphierenden Liebe: Chapter 11
5. Das Lied der Triumphierenden Liebe: Chapter 12
6. 6 Morceaux: 6 Morceaux: No. 6. Tarantelle
7. Das Lied der Triumphierenden Liebe: Chapter 13
8. Das Lied der Triumphierenden Liebe: Chapter 14
9. Poeme, Op. 25 (arr. for violin and piano)
10 - 13. Violin Sonata No. 1 in A major, Op. 13
Исполнители:
Martina Geteck, Ulf Schneider, Stephan Imorde
Композиторы:
Pauline Viardot-Garsia, Paul Viardot, Ernest Chausson, Gabriel Faure
Сценарий:
Иван Сергеевич Тургенев
Полина Мишель Фердинанд Гарсиа-Виардо

Лог создания рипа

DISC 1
Exact Audio Copy V1.0 beta 3 from 29. August 2011
Отчёт EAC об извлечении, выполненном 1. сентября 2013, 3:47
Iwan Turgenew / Das Lied der triumphierenden Liebe 1
Дисковод: HL-DT-STDVDRAM GH60N Adapter: 2 ID: 1
Режим чтения : ДостоверностьИспользование точного потока : ДаОтключение кэша аудио : ДаИспользование указателей C2 : Нет
Коррекция смещения при чтении : 667Способность читать области Lead-in и Lead-out : НетЗаполнение пропущенных сэмплов тишиной : ДаУдаление блоков с тишиной в начале и конце : НетПри вычислениях CRC использовались нулевые сэмплы : ДаИнтерфейс : Встроенный Win32-интерфейс для Win NT/2000
Выходной формат : Пользовательский кодировщикВыбранный битрейт : 896 kBit/sКачество : ВысокийДобавление ID3-тега : НетУтилита сжатия : C:\Program Files\Exact Audio Copy\FLAC\FLAC.EXEДополнительные параметры : -6 -V -T "ARTIST=%artist%" -T "TITLE=%title%" -T "ALBUM=%albumtitle%" -T "DATE=%year%" -T "TRACKNUMBER=%tracknr%" -T "GENRE=%genre%" -T "COMMENT=%comment%" -T "BAND=%albuminterpret%" -T "ALBUMARTIST=%albuminterpret%" -T "COMPOSER=%composer%" %haslyrics%--tag-from-file=LYRICS="%lyricsfile%"%haslyrics% -T "DISCNUMBER=%cdnumber%" -T "TOTALDISCS=%totalcds%" -T "TOTALTRACKS=%numtracks%" %hascover%--picture="%coverfile%"%hascover% %source% -o %dest%
TOC извлечённого CD
Трек | Старт | Длительность | Начальный сектор | Конечный сектор --------------------------------------------------------------------- 1 | 0:00.00 | 4:08.60 | 0 | 18659 2 | 4:08.60 | 2:43.00 | 18660 | 30884 3 | 6:51.60 | 4:13.00 | 30885 | 49859 4 | 11:04.60 | 3:32.00 | 49860 | 65759 5 | 14:36.60 | 3:03.00 | 65760 | 79484 6 | 17:39.60 | 5:16.00 | 79485 | 103184 7 | 22:55.60 | 2:08.00 | 103185 | 112784 8 | 25:03.60 | 10:22.00 | 112785 | 159434 9 | 35:25.60 | 4:09.00 | 159435 | 178109 10 | 39:34.60 | 3:38.00 | 178110 | 194459 11 | 43:12.60 | 3:04.00 | 194460 | 208259 12 | 46:16.60 | 6:04.00 | 208260 | 235559 13 | 52:20.60 | 2:49.00 | 235560 | 248234 14 | 55:09.60 | 4:26.00 | 248235 | 268184 15 | 59:35.60 | 3:56.00 | 268185 | 285884 16 | 63:31.60 | 4:00.09 | 285885 | 303893
Характеристики диапазона извлечения и сообщения об ошибках
Выбранный диапазон
Имя файла C:\Documents and Settings\Алексей\Рабочий стол\Das Lied der triumphierenden Liebe 1\Iwan Turgenew - Das Lied der triumphierenden Liebe 1.wav
Пиковый уровень 99.7 % Скорость извлечения 28.0 X Качество диапазона 100.0 % CRC теста DBE86A8D CRC копии DBE86A8D Копирование... OK
Ошибок не произошло
Конец отчёта
DISC 2
Exact Audio Copy V1.0 beta 3 from 29. August 2011
Отчёт EAC об извлечении, выполненном 1. сентября 2013, 15:15
Iwan Turgenew / Das Lied der triumphierenden Liebe 2
Дисковод: HL-DT-STDVDRAM GH60N Adapter: 2 ID: 1
Режим чтения : ДостоверностьИспользование точного потока : ДаОтключение кэша аудио : ДаИспользование указателей C2 : Нет
Коррекция смещения при чтении : 667Способность читать области Lead-in и Lead-out : НетЗаполнение пропущенных сэмплов тишиной : ДаУдаление блоков с тишиной в начале и конце : НетПри вычислениях CRC использовались нулевые сэмплы : ДаИнтерфейс : Встроенный Win32-интерфейс для Win NT/2000
Выходной формат : Пользовательский кодировщикВыбранный битрейт : 896 kBit/sКачество : ВысокийДобавление ID3-тега : НетУтилита сжатия : C:\Program Files\Exact Audio Copy\FLAC\FLAC.EXEДополнительные параметры : -6 -V -T "ARTIST=%artist%" -T "TITLE=%title%" -T "ALBUM=%albumtitle%" -T "DATE=%year%" -T "TRACKNUMBER=%tracknr%" -T "GENRE=%genre%" -T "COMMENT=%comment%" -T "BAND=%albuminterpret%" -T "ALBUMARTIST=%albuminterpret%" -T "COMPOSER=%composer%" %haslyrics%--tag-from-file=LYRICS="%lyricsfile%"%haslyrics% -T "DISCNUMBER=%cdnumber%" -T "TOTALDISCS=%totalcds%" -T "TOTALTRACKS=%numtracks%" %hascover%--picture="%coverfile%"%hascover% %source% -o %dest%
TOC извлечённого CD
Трек | Старт | Длительность | Начальный сектор | Конечный сектор --------------------------------------------------------------------- 1 | 0:00.00 | 4:20.60 | 0 | 19559 2 | 4:20.60 | 4:06.00 | 19560 | 38009 3 | 8:26.60 | 2:55.00 | 38010 | 51134 4 | 11:21.60 | 4:06.00 | 51135 | 69584 5 | 15:27.60 | 3:37.00 | 69585 | 85859 6 | 19:04.60 | 3:01.00 | 85860 | 99434 7 | 22:05.60 | 1:46.00 | 99435 | 107384 8 | 23:51.60 | 2:22.00 | 107385 | 118034 9 | 26:13.60 | 15:22.00 | 118035 | 187184 10 | 41:35.60 | 8:48.00 | 187185 | 226784 11 | 50:23.60 | 6:56.00 | 226785 | 257984 12 | 57:19.60 | 4:12.00 | 257985 | 276884 13 | 61:31.60 | 5:16.10 | 276885 | 300594
Характеристики диапазона извлечения и сообщения об ошибках
Выбранный диапазон
Имя файла C:\Documents and Settings\Алексей\Рабочий стол\Das Lied der triumphierenden Liebe 2\Iwan Turgenew - Das Lied der triumphierenden Liebe.wav
Пиковый уровень 100.0 % Скорость извлечения 28.2 X Качество диапазона 100.0 % CRC теста 3D296E50 CRC копии 3D296E50 Копирование... OK
Ошибок не произошло
Конец отчёта

Содержание индексной карты (.CUE)

DISC 1
REM DISCID E00FD310REM COMMENT "ExactAudioCopy v1.0b3"PERFORMER "Iwan Turgenew"TITLE "Das Lied der triumphierenden Liebe 1"FILE "Iwan Turgenew - Das Lied der triumphierenden Liebe 1.flac" WAVE TRACK 01 AUDIO TITLE "Violin Sonatine in A minor: I. Adagio" PERFORMER "Iwan Turgenew" INDEX 01 00:00:00 TRACK 02 AUDIO TITLE "Violin Sonatine in A minor: II. Scherzo: Allegro" PERFORMER "Iwan Turgenew" INDEX 01 04:08:60 TRACK 03 AUDIO TITLE "Violin Sonatine in A minor: III. Allegro" PERFORMER "Iwan Turgenew" INDEX 01 06:51:60 TRACK 04 AUDIO TITLE "Das Lied der Triumphierenden Liebe: Chapter 1" PERFORMER "Iwan Turgenew" INDEX 01 11:04:60 TRACK 05 AUDIO TITLE "6 Morceaux: 6 Morceaux: No. 1. Romance" PERFORMER "Iwan Turgenew" INDEX 01 14:36:60 TRACK 06 AUDIO TITLE "Das Lied der Triumphierenden Liebe: Chapter 2" PERFORMER "Iwan Turgenew" INDEX 01 17:39:60 TRACK 07 AUDIO TITLE "6 Morceaux: 6 Morceaux: No. 2. Bohemienne" PERFORMER "Iwan Turgenew" INDEX 01 22:55:60 TRACK 08 AUDIO TITLE "Das Lied der Triumphierenden Liebe: Chapter 3" PERFORMER "Iwan Turgenew" INDEX 01 25:03:60 TRACK 09 AUDIO TITLE "6 Morceaux: 6 Morceaux: No. 5. Vieille Chanson" PERFORMER "Iwan Turgenew" INDEX 01 35:25:60 TRACK 10 AUDIO TITLE "Das Lied der Triumphierenden Liebe: Chapter 4" PERFORMER "Iwan Turgenew" INDEX 01 39:34:60 TRACK 11 AUDIO TITLE "Das Lied der Triumphierenden Liebe: Chapter 5" PERFORMER "Iwan Turgenew" INDEX 01 43:12:60 TRACK 12 AUDIO TITLE "Das Lied der Triumphierenden Liebe: Chapter 6" PERFORMER "Iwan Turgenew" INDEX 01 46:16:60 TRACK 13 AUDIO TITLE "6 Morceaux: 6 Morceaux: No. 4. Mazourke" PERFORMER "Iwan Turgenew" INDEX 01 52:20:60 TRACK 14 AUDIO TITLE "Das Lied der Triumphierenden Liebe: Chapter 7" PERFORMER "Iwan Turgenew" INDEX 01 55:09:60 TRACK 15 AUDIO TITLE "Das Lied der Triumphierenden Liebe: Chapter 8" PERFORMER "Iwan Turgenew" INDEX 01 59:35:60 TRACK 16 AUDIO TITLE "Romance in D major, Op. 6" PERFORMER "Iwan Turgenew" INDEX 01 63:31:60
DISC 2
REM DISCID B50FA70DREM COMMENT "ExactAudioCopy v1.0b3"PERFORMER "Iwan Turgenew"TITLE "Das Lied der triumphierenden Liebe 2"FILE "Iwan Turgenew - Das Lied der triumphierenden Liebe 2.flac" WAVE TRACK 01 AUDIO TITLE "Das Lied der Triumphierenden Liebe: Chapter 9" PERFORMER "Iwan Turgenew" INDEX 01 00:00:00 TRACK 02 AUDIO TITLE "Das Lied der Triumphierenden Liebe: Chapter 10" PERFORMER "Iwan Turgenew" INDEX 01 04:20:60 TRACK 03 AUDIO TITLE "6 Morceaux: 6 Morceaux: No. 3. Berceuse" PERFORMER "Iwan Turgenew" INDEX 01 08:26:60 TRACK 04 AUDIO TITLE "Das Lied der Triumphierenden Liebe: Chapter 11" PERFORMER "Iwan Turgenew" INDEX 01 11:21:60 TRACK 05 AUDIO TITLE "Das Lied der Triumphierenden Liebe: Chapter 12" PERFORMER "Iwan Turgenew" INDEX 01 15:27:60 TRACK 06 AUDIO TITLE "6 Morceaux: 6 Morceaux: No. 6. Tarantelle" PERFORMER "Iwan Turgenew" INDEX 01 19:04:60 TRACK 07 AUDIO TITLE "Das Lied der Triumphierenden Liebe: Chapter 13" PERFORMER "Iwan Turgenew" INDEX 01 22:05:60 TRACK 08 AUDIO TITLE "Das Lied der Triumphierenden Liebe: Chapter 14" PERFORMER "Iwan Turgenew" INDEX 01 23:51:60 TRACK 09 AUDIO TITLE "Poeme, Op. 25 (arr. for violin and piano)" PERFORMER "Iwan Turgenew" INDEX 01 26:13:60 TRACK 10 AUDIO TITLE "Violin Sonata No. 1 in A major, Op. 13: I. Allegro molto" PERFORMER "Iwan Turgenew" INDEX 01 41:35:60 TRACK 11 AUDIO TITLE "Violin Sonata No. 1 in A major, Op. 13: II. Andante" PERFORMER "Iwan Turgenew" INDEX 01 50:23:60 TRACK 12 AUDIO TITLE "Violin Sonata No. 1 in A major, Op. 13: III. Allegro vivo" PERFORMER "Iwan Turgenew" INDEX 01 57:19:60 TRACK 13 AUDIO TITLE "Violin Sonata No. 1 in A major, Op. 13: IV. Allegro quasi presto" PERFORMER "Iwan Turgenew" INDEX 01 61:31:60



Показать сообщения:    

Текущее время: 11-Дек 07:14

Часовой пояс: UTC + 3


Вы не можете начинать темы
Вы не можете отвечать на сообщения
Вы не можете редактировать свои сообщения
Вы не можете удалять свои сообщения
Вы не можете голосовать в опросах
Вы не можете прикреплять файлы к сообщениям
Вы не можете скачивать файлы