(Classical) Pauline Viardot-Garcia / Полина Виардо-Гарсия - Lieder, Chansons, Canzoni, Mazurkas (Isabel Bayrakdarian, Serouj Kradjian) - 2004, FLAC (image+.cue) lossless


 

[Цитировать]

Pauline Viardot-Garcia (Isabel Bayrakdarian, Serouj Kradjian)
Жанр: Classical
Страна-производитель диска: Canada
Год издания диска: 2004
Издатель (лейбл): ANALEKTA
Номер по каталогу: AN 2 9903
Аудиокодек: FLAC
Тип рипа: image+.cue
Битрейт аудио: lossless
Продолжительность: 66:50.05
Источник: собственный рип
Наличие сканов в содержимом раздачи: да
Треклист:
1. Serenade
2. Bonjour mon coeur (Hello My Heart)
3. Hai luli!
4. L'enfant et la mere (Mother and Child)
5. Havanaise
6. Madrid
7. Les Filles de Cadix (Girls from Cadiz)
8. Des Nachts (At Night)
9. Rathsel (Mystery)
10. Die Sterne (The Stars)
11. Die Beschworung (Incantation)
12. Seize-ans (after Mazurka No. 31 in A flat major, Op. 50/2)
13. Aime-moi (after Mazurka No. 23 in D major, Op. 33/2)
14. La Fete (after F. Chopin's Mazurka No. 4 in E flat minor, Op. 6/4)
15. Plainte d'amour (after Mazurka No. 1 in F sharp minor, Op. 6/1)
16. Chanson de la pluie (Rain Song)
17. Grands oiseaux blancs (Great White Birds)
18. Desespoir (Despair)
19. Sylvie
20. Moriro (I Shall Die)
21. L'afflitta (The Afflicted)
22. Ta chevelure (Your Hair)
23. Ti voglio amar (I Want to Love You)
Исполнители:
Isabel Bayrakdarian - soprano, Serouj Kradjian - piano
Полина Мишель Фердинанд Гарсиа-Виардо

Лог создания рипа

Exact Audio Copy V1.0 beta 3 from 29. August 2011
Отчёт EAC об извлечении, выполненном 31. августа 2013, 17:24
1 Isabel Bayrakdarian / Pauline Viardot
Дисковод: HL-DT-STDVDRAM GH60N Adapter: 2 ID: 1
Режим чтения : ДостоверностьИспользование точного потока : ДаОтключение кэша аудио : ДаИспользование указателей C2 : Нет
Коррекция смещения при чтении : 667Способность читать области Lead-in и Lead-out : НетЗаполнение пропущенных сэмплов тишиной : ДаУдаление блоков с тишиной в начале и конце : НетПри вычислениях CRC использовались нулевые сэмплы : ДаИнтерфейс : Встроенный Win32-интерфейс для Win NT/2000
Выходной формат : Пользовательский кодировщикВыбранный битрейт : 896 kBit/sКачество : ВысокийДобавление ID3-тега : НетУтилита сжатия : C:\Program Files\Exact Audio Copy\FLAC\FLAC.EXEДополнительные параметры : -6 -V -T "ARTIST=%artist%" -T "TITLE=%title%" -T "ALBUM=%albumtitle%" -T "DATE=%year%" -T "TRACKNUMBER=%tracknr%" -T "GENRE=%genre%" -T "COMMENT=%comment%" -T "BAND=%albuminterpret%" -T "ALBUMARTIST=%albuminterpret%" -T "COMPOSER=%composer%" %haslyrics%--tag-from-file=LYRICS="%lyricsfile%"%haslyrics% -T "DISCNUMBER=%cdnumber%" -T "TOTALDISCS=%totalcds%" -T "TOTALTRACKS=%numtracks%" %hascover%--picture="%coverfile%"%hascover% %source% -o %dest%
TOC извлечённого CD
Трек | Старт | Длительность | Начальный сектор | Конечный сектор --------------------------------------------------------------------- 1 | 0:00.00 | 1:57.15 | 0 | 8789 2 | 1:57.15 | 1:18.55 | 8790 | 14694 3 | 3:15.70 | 3:38.45 | 14695 | 31089 4 | 6:54.40 | 2:54.22 | 31090 | 44161 5 | 9:48.62 | 5:19.23 | 44162 | 68109 6 | 15:08.10 | 2:35.20 | 68110 | 79754 7 | 17:43.30 | 2:47.15 | 79755 | 92294 8 | 20:30.45 | 2:58.52 | 92295 | 105696 9 | 23:29.22 | 3:20.45 | 105697 | 120741 10 | 26:49.67 | 4:00.25 | 120742 | 138766 11 | 30:50.17 | 2:59.25 | 138767 | 152216 12 | 33:49.42 | 3:37.20 | 152217 | 168511 13 | 37:26.62 | 2:28.60 | 168512 | 179671 14 | 39:55.47 | 4:54.62 | 179672 | 201783 15 | 44:50.34 | 3:37.71 | 201784 | 218129 16 | 48:28.30 | 3:02.60 | 218130 | 231839 17 | 51:31.15 | 3:13.37 | 231840 | 246351 18 | 54:44.52 | 2:26.53 | 246352 | 257354 19 | 57:11.30 | 2:57.32 | 257355 | 270661 20 | 60:08.62 | 1:31.00 | 270662 | 277486 21 | 61:39.62 | 2:53.00 | 277487 | 290461 22 | 64:32.62 | 2:17.18 | 290462 | 300754 23 | 66:50.05 | 2:16.50 | 300755 | 311004
Характеристики диапазона извлечения и сообщения об ошибках
Выбранный диапазон
Имя файла C:\Documents and Settings\Алексей\Рабочий стол\Isabel Bayrakdarian\Isabel Bayrakdarian - Pauline Viardot.wav
Пиковый уровень 97.1 % Скорость извлечения 7.3 X Качество диапазона 100.0 % CRC теста D7626BC9 CRC копии D7626BC9 Копирование... OK
Ошибок не произошло
AccurateRip: сводка
Трек 1 : извлечено точно (доверие 2) [096BF363] (AR v2)Трек 2 : извлечено точно (доверие 2) [1D2C5C5B] (AR v2)Трек 3 : извлечено точно (доверие 2) [8E786927] (AR v2)Трек 4 : извлечено точно (доверие 2) [24EA5B16] (AR v2)Трек 5 : извлечено точно (доверие 5) [4B7D4235] (AR v1)Трек 6 : извлечено точно (доверие 2) [098E666D] (AR v2)Трек 7 : извлечено точно (доверие 2) [95EA443D] (AR v2)Трек 8 : извлечено точно (доверие 2) [A3938E9F] (AR v2)Трек 9 : извлечено точно (доверие 2) [0A239AF5] (AR v2)Трек 10 : извлечено точно (доверие 2) [A00A192C] (AR v2)Трек 11 : извлечено точно (доверие 2) [C71DCE5E] (AR v2)Трек 12 : извлечено точно (доверие 2) [DA6711E0] (AR v2)Трек 13 : извлечено точно (доверие 5) [7A3B595B] (AR v1)Трек 14 : извлечено точно (доверие 5) [5F3A208F] (AR v1)Трек 15 : извлечено точно (доверие 5) [404CC01D] (AR v1)Трек 16 : извлечено точно (доверие 5) [C6CBE0CD] (AR v1)Трек 17 : извлечено точно (доверие 5) [5679405B] (AR v1)Трек 18 : извлечено точно (доверие 5) [A7265C88] (AR v1)Трек 19 : извлечено точно (доверие 5) [A87B0BDA] (AR v1)Трек 20 : извлечено точно (доверие 2) [A362469D] (AR v2)Трек 21 : извлечено точно (доверие 5) [8566A459] (AR v1)Трек 22 : извлечено точно (доверие 2) [14375BED] (AR v2)Трек 23 : извлечено точно (доверие 2) [0B90FDD9] (AR v2)
Все треки извлечены точно
Конец отчёта

Содержание индексной карты (.CUE)

REM DISCID 21103217REM COMMENT "ExactAudioCopy v1.0b3"PERFORMER "Isabel Bayrakdarian"TITLE "Pauline Viardot"FILE "Isabel Bayrakdarian - Pauline Viardot.flac" WAVE TRACK 01 AUDIO TITLE "Serenade" PERFORMER "Isabel Bayrakdarian" INDEX 01 00:00:00 TRACK 02 AUDIO TITLE "Bonjour mon coeur" PERFORMER "Isabel Bayrakdarian" INDEX 00 01:53:55 INDEX 01 01:57:15 TRACK 03 AUDIO TITLE "Hai luli!" PERFORMER "Isabel Bayrakdarian" INDEX 00 03:12:60 INDEX 01 03:15:70 TRACK 04 AUDIO TITLE "L'enfant et la mere" PERFORMER "Isabel Bayrakdarian" INDEX 00 06:51:55 INDEX 01 06:54:40 TRACK 05 AUDIO TITLE "Havanaise" PERFORMER "Isabel Bayrakdarian" INDEX 00 09:45:12 INDEX 01 09:48:62 TRACK 06 AUDIO TITLE "Madrid" PERFORMER "Isabel Bayrakdarian" INDEX 00 15:04:45 INDEX 01 15:08:10 TRACK 07 AUDIO TITLE "Les Filles de Cadix" PERFORMER "Isabel Bayrakdarian" INDEX 00 17:40:15 INDEX 01 17:43:30 TRACK 08 AUDIO TITLE "Des Nachts" PERFORMER "Isabel Bayrakdarian" INDEX 00 20:28:52 INDEX 01 20:30:45 TRACK 09 AUDIO TITLE "Rathsel" PERFORMER "Isabel Bayrakdarian" INDEX 00 23:24:60 INDEX 01 23:29:22 TRACK 10 AUDIO TITLE "Die Sterne" PERFORMER "Isabel Bayrakdarian" INDEX 00 26:45:00 INDEX 01 26:49:67 TRACK 11 AUDIO TITLE "Die Beschworung" PERFORMER "Isabel Bayrakdarian" INDEX 00 30:45:52 INDEX 01 30:50:17 TRACK 12 AUDIO TITLE "Seize-ans" PERFORMER "Isabel Bayrakdarian" INDEX 00 33:44:32 INDEX 01 33:49:42 TRACK 13 AUDIO TITLE "Aime-moi" PERFORMER "Isabel Bayrakdarian" INDEX 00 37:22:25 INDEX 01 37:26:62 TRACK 14 AUDIO TITLE "La Fete" PERFORMER "Isabel Bayrakdarian" INDEX 00 39:52:12 INDEX 01 39:55:47 TRACK 15 AUDIO TITLE "Plainte d'amour" PERFORMER "Isabel Bayrakdarian" INDEX 00 44:46:00 INDEX 01 44:50:34 TRACK 16 AUDIO TITLE "Chanson de la pluie" PERFORMER "Isabel Bayrakdarian" INDEX 00 48:24:37 INDEX 01 48:28:30 TRACK 17 AUDIO TITLE "Grands oiseaux blancs" PERFORMER "Isabel Bayrakdarian" INDEX 00 51:27:34 INDEX 01 51:31:15 TRACK 18 AUDIO TITLE "Desespoir" PERFORMER "Isabel Bayrakdarian" INDEX 00 54:41:47 INDEX 01 54:44:52 TRACK 19 AUDIO TITLE "Sylvie" PERFORMER "Isabel Bayrakdarian" INDEX 00 57:07:34 INDEX 01 57:11:30 TRACK 20 AUDIO TITLE "Moriro" PERFORMER "Isabel Bayrakdarian" INDEX 00 60:04:42 INDEX 01 60:08:62 TRACK 21 AUDIO TITLE "L'afflitta" PERFORMER "Isabel Bayrakdarian" INDEX 00 61:36:27 INDEX 01 61:39:62 TRACK 22 AUDIO TITLE "Ta chevelure" PERFORMER "Isabel Bayrakdarian" INDEX 00 64:30:62 INDEX 01 64:32:62 TRACK 23 AUDIO TITLE "Ti voglio amar" PERFORMER "Isabel Bayrakdarian" INDEX 00 66:46:52 INDEX 01 66:50:05



Показать сообщения:    

Текущее время: 04-Дек 17:19

Часовой пояс: UTC + 3


Вы не можете начинать темы
Вы не можете отвечать на сообщения
Вы не можете редактировать свои сообщения
Вы не можете удалять свои сообщения
Вы не можете голосовать в опросах
Вы не можете прикреплять файлы к сообщениям
Вы не можете скачивать файлы