(Classical) Pauline Viardot-Garcia / Полина Виардо-Гарсия - Melodies, Lieder, Songs (Gyorgyi Dombradi, Lambert Bumiller) - 2000, FLAC (image+.cue) lossless


 

[Цитировать]

Pauline Viardot-Garcia (Gyorgyi Dombradi, Lambert Bumiller)
Жанр: Classical
Страна-производитель диска: Germany
Год издания диска: 2000
Издатель (лейбл): ARS MUSICI
Номер по каталогу: AM 1288-2
Аудиокодек: FLAC
Тип рипа: image+.cue
Битрейт аудио: lossless
Продолжительность: 45:52.01
Источник: собственный рип
Наличие сканов в содержимом раздачи: да
Треклист:
1. Madrid (Alfred de Musset)
2. Reproches ("Poesies Toscanes", Louis Pomey)
3. Georgienne (Alexandre Pouchkine/Louis Pomey)
4. Evocation (Alexandre Pouchkine/Louis Pomey)
5. Ici-bas tous les Lilas meurent (Sully Prudhomme)
6. Ressemblance (Sully Prudhomme)
7. Parme (Sully Prudhomme)
8. Ta Chevelure, Chanson Napolitaine (Vincent des Lois)
9. Canzone d'Amore: Ti voglio amar (Canti popolari Toscani)
10. Serenade (Theophile Gautier)
11. Grands oiseaux blancs (Louis Pomey)
12. Sylvie (Nicolas Boileau)
13. La Marquise (Maurice Vaucaire)
14. Les attraits (Poesie du XVIIIe siecle/Anonym, 18.th centurypoem)
15. Scene d'Hermione (Jean Racine: Andromoque)
16. In der Fruhe (Eduard Morike)
17. Rathsel (Richard pohl)
18. La Fete (Louis Pomey)
Исполнители:
Gyorgyi Dombradi - mezzosopran, Lambert Bumiller - piano
Полина Мишель Фердинанд Гарсиа-Виардо

Лог создания рипа

Exact Audio Copy V1.0 beta 3 from 29. August 2011
Отчёт EAC об извлечении, выполненном 31. августа 2013, 15:42
Gyorgyi Dombradi / Pauline Viardot
Дисковод: HL-DT-STDVDRAM GH60N Adapter: 2 ID: 1
Режим чтения : ДостоверностьИспользование точного потока : ДаОтключение кэша аудио : ДаИспользование указателей C2 : Нет
Комбинированное смещение чтения/записи : 667Способность читать области Lead-in и Lead-out : НетЗаполнение пропущенных сэмплов тишиной : ДаУдаление блоков с тишиной в начале и конце : НетПри вычислениях CRC использовались нулевые сэмплы : ДаИнтерфейс : Встроенный Win32-интерфейс для Win NT/2000
Выходной формат : Пользовательский кодировщикВыбранный битрейт : 896 kBit/sКачество : ВысокийДобавление ID3-тега : НетУтилита сжатия : C:\Program Files\Exact Audio Copy\FLAC\FLAC.EXEДополнительные параметры : -6 -V -T "ARTIST=%artist%" -T "TITLE=%title%" -T "ALBUM=%albumtitle%" -T "DATE=%year%" -T "TRACKNUMBER=%tracknr%" -T "GENRE=%genre%" -T "COMMENT=%comment%" -T "BAND=%albuminterpret%" -T "ALBUMARTIST=%albuminterpret%" -T "COMPOSER=%composer%" %haslyrics%--tag-from-file=LYRICS="%lyricsfile%"%haslyrics% -T "DISCNUMBER=%cdnumber%" -T "TOTALDISCS=%totalcds%" -T "TOTALTRACKS=%numtracks%" %hascover%--picture="%coverfile%"%hascover% %source% -o %dest%
TOC извлечённого CD
Трек | Старт | Длительность | Начальный сектор | Конечный сектор --------------------------------------------------------------------- 1 | 0:00.00 | 2:41.63 | 0 | 12137 2 | 2:41.63 | 3:00.08 | 12138 | 25645 3 | 5:41.71 | 2:15.60 | 25646 | 35830 4 | 7:57.56 | 3:26.52 | 35831 | 51332 5 | 11:24.33 | 1:45.13 | 51333 | 59220 6 | 13:09.46 | 2:04.27 | 59221 | 68547 7 | 15:13.73 | 2:25.35 | 68548 | 79457 8 | 17:39.33 | 1:57.68 | 79458 | 88300 9 | 19:37.26 | 2:00.47 | 88301 | 97347 10 | 21:37.73 | 1:55.50 | 97348 | 106022 11 | 23:33.48 | 3:03.15 | 106023 | 119762 12 | 26:36.63 | 2:57.63 | 119763 | 133100 13 | 29:34.51 | 1:56.45 | 133101 | 141845 14 | 31:31.21 | 1:33.62 | 141846 | 148882 15 | 33:05.08 | 6:29.60 | 148883 | 178117 16 | 39:34.68 | 2:42.30 | 178118 | 190297 17 | 42:17.23 | 3:34.53 | 190298 | 206400 18 | 45:52.01 | 4:45.57 | 206401 | 227832
Характеристики диапазона извлечения и сообщения об ошибках
Выбранный диапазон
Имя файла C:\Documents and Settings\Алексей\Рабочий стол\Gyorgyi Dombradi\Gyorgyi Dombradi - Pauline Viardot.wav
Пиковый уровень 65.4 % Скорость извлечения 26.9 X Качество диапазона 99.9 % CRC теста 54D36372 CRC копии 54D36372 Копирование... OK
Ошибок не произошло
Конец отчёта

Содержание индексной карты (.CUE)

REM DISCID 2A0BDD12REM COMMENT "ExactAudioCopy v1.0b3"PERFORMER "Gyorgyi Dombradi"TITLE "Pauline Viardot"FILE "Gyorgyi Dombradi - Pauline Viardot.flac" WAVE TRACK 01 AUDIO TITLE "Madrid" PERFORMER "Gyorgyi Dombradi" INDEX 01 00:00:00 TRACK 02 AUDIO TITLE "Reproches" PERFORMER "Gyorgyi Dombradi" INDEX 00 02:36:28 INDEX 01 02:41:63 TRACK 03 AUDIO TITLE "Georgienne" PERFORMER "Gyorgyi Dombradi" INDEX 00 05:38:33 INDEX 01 05:41:71 TRACK 04 AUDIO TITLE "Evocation" PERFORMER "Gyorgyi Dombradi" INDEX 00 07:51:01 INDEX 01 07:57:56 TRACK 05 AUDIO TITLE "Ici-bas tous les Lilas meurent" PERFORMER "Gyorgyi Dombradi" INDEX 00 11:19:53 INDEX 01 11:24:33 TRACK 06 AUDIO TITLE "Ressemblance" PERFORMER "Gyorgyi Dombradi" INDEX 00 13:05:25 INDEX 01 13:09:46 TRACK 07 AUDIO TITLE "Parme" PERFORMER "Gyorgyi Dombradi" INDEX 00 15:08:18 INDEX 01 15:13:73 TRACK 08 AUDIO TITLE "Ta Chevelure" PERFORMER "Gyorgyi Dombradi" INDEX 00 17:34:73 INDEX 01 17:39:33 TRACK 09 AUDIO TITLE "Canzone d'Amore: Ti voglio amar" PERFORMER "Gyorgyi Dombradi" INDEX 00 19:32:43 INDEX 01 19:37:26 TRACK 10 AUDIO TITLE "Serenade" PERFORMER "Gyorgyi Dombradi" INDEX 00 21:32:58 INDEX 01 21:37:73 TRACK 11 AUDIO TITLE "Grands oiseaux blancs" PERFORMER "Gyorgyi Dombradi" INDEX 00 23:27:05 INDEX 01 23:33:48 TRACK 12 AUDIO TITLE "Sylvie" PERFORMER "Gyorgyi Dombradi" INDEX 00 26:30:73 INDEX 01 26:36:63 TRACK 13 AUDIO TITLE "La Marquise" PERFORMER "Gyorgyi Dombradi" INDEX 00 29:31:05 INDEX 01 29:34:51 TRACK 14 AUDIO TITLE "Les attraits" PERFORMER "Gyorgyi Dombradi" INDEX 00 31:24:43 INDEX 01 31:31:21 TRACK 15 AUDIO TITLE "Scene d'Hermione" PERFORMER "Gyorgyi Dombradi" INDEX 00 32:58:33 INDEX 01 33:05:08 TRACK 16 AUDIO TITLE "In der Fruhe" PERFORMER "Gyorgyi Dombradi" INDEX 00 39:27:53 INDEX 01 39:34:68 TRACK 17 AUDIO TITLE "Rathsel" PERFORMER "Gyorgyi Dombradi" INDEX 00 42:12:44 INDEX 01 42:17:23 TRACK 18 AUDIO TITLE "La Fete" PERFORMER "Gyorgyi Dombradi" INDEX 00 45:45:55 INDEX 01 45:52:01



Показать сообщения:    

Текущее время: 06-Дек 20:56

Часовой пояс: UTC + 3


Вы не можете начинать темы
Вы не можете отвечать на сообщения
Вы не можете редактировать свои сообщения
Вы не можете удалять свои сообщения
Вы не можете голосовать в опросах
Вы не можете прикреплять файлы к сообщениям
Вы не можете скачивать файлы