(Classical) Шостакович/Shostakovich/Chostakovitch - Крокодил/Krokodil - Op.67, 87 No.1 & 4, 109, 121, 123, 127, 134, 146 (Надя Смирнова, Петр Мигунов, Граф Муржа, Marie Hallynck, Arthur Schoonderwoerd) Alpha 055 - 2004, FLAC (image+.cue) lossless


 

[Цитировать]

Д.Д.Шостакович / Dmitri Dmitrievitch Chostakovitch - Крокодил / Krokodil
Жанр: Classical
Страна-производитель диска: EU
Год издания диска: 2004
Издатель (лейбл): Alpha
Номер по каталогу: 055
Дата записи: 2003
Аудиокодек: FLAC
Тип рипа: image+.cue
Битрейт аудио: lossless
Продолжительность: 69'06 + 67'07
Источник: собственный рип
Наличие сканов в содержимом раздачи: да
Треклист:
Дмитрий Шостакович (1906-1975)
CD1:
1. "Предисловие к полному собранию моих сочинений и краткое размышление по поводу этого предисловия" для баса и фортепиано, соч. 123 (1966) 2'23
2-3. Прелюдия и фуга до-мажор №1 из цикла прелюдий и фуг для фортепиано, соч. 87 (1950) 5'50
Фортепианное трио № 2 e-moll, соч. 67 (1944)
4. Andante - Moderato 7'46
5. Allegro con brio 2'45
6. Largo 5'14
7. Allegretto 10'32
Пять романсов на тексты из журнала «Крокодил» №24 от 30 августа 1965 г. для баса и фортепиано, соч. 121 (1965)
8. Чистосердечное признание 4'30
9. Трудно исполнимое желание 1'17
10. Благоразумие 1'17
11. Иринка и пастух 1'27
12. Чрезмерный восторг 2'08
Семь стихотворений А.А.Блока для сопрано и фортепианного трио, соч. 127 (1967)
13. Песня Офелии 2'42
14. Гамаюн, птица вещая 3'35
15. Мы были вместе 2'55
16. Город спит 3'05
17. Буря 1'54
18. Тайные знаки 4'44
19. Музыка 4'44
CD2:
1-2. Прелюдия и фуга ми-минор №4 из цикла прелюдий и фуг для фортепиано, соч. 87 (1950) 8'23
«Сатиры», пять романсов на слова Саши Чёрного для сопрано и фортепиано, соч. 109 (1961)
3. Критику 1'13
4. Пробуждение весны 2'50
5. Потомки 2'25
6. Недоразумение 4'44
7. Крейцерова соната 3'47
Соната для скрипки и фортепиано, соч. 134 (1969)
8. Andante 10'12
9. Allegretto 7'03
10. Largo - Andante 13'25
Четыре стихотворения капитана Лебядкина (из романа Ф.М.Достоевского «Бесы») для баса и фортепиано, соч. 146 (1974)
11. Любовь капитана Лебядкина 4'25
12. Таракан 3'55
13. Бал в пользу гувернанток 2'06
14. Светлая личность 2'23
Исполнители:
Надя Смирнова, сопрано / Nadja Smirnova, soprano
Пётр Мигунов, бас / Petr Migunov, basse
Граф Муржа, скрипка / Graf Mourja, violon
Marie Hallynck, violoncelle
Arthur Schoonderwoerd, piano

Лог создания рипаCD1

Exact Audio Copy V1.0 beta 3 from 29. August 2011
Отчёт EAC об извлечении, выполненном 25. августа 2013, 13:09
Dmitri Chostakovitch / Krokodil - CD1
Дисковод: HL-DT-STDVDRAM GT33N Adapter: 1 ID: 0
Режим чтения : ДостоверностьИспользование точного потока : ДаОтключение кэша аудио : ДаИспользование указателей C2 : Нет
Коррекция смещения при чтении : 103Способность читать области Lead-in и Lead-out : НетЗаполнение пропущенных сэмплов тишиной : ДаУдаление блоков с тишиной в начале и конце : НетПри вычислениях CRC использовались нулевые сэмплы : ДаИнтерфейс : Встроенный Win32-интерфейс для Win NT/2000
Выходной формат : Пользовательский кодировщикВыбранный битрейт : 1024 kBit/sКачество : ВысокийДобавление ID3-тега : ДаУтилита сжатия : C:\Program Files (x86)\Exact Audio Copy\Flac\flac.exeДополнительные параметры : -8 -V -T "ALBUMARTIST=%albumartist%" -T "ALBUM=%albumtitle%" -T "DATE=%year%" -T "TRACKTOTAL=%numtracks%" -T "GENRE=%genre%" -T "COMMENT=%comment%" -T "PERFORMER=%albuminterpret%" -T "COMPOSER=%composer%" %source% -o %dest%
TOC извлечённого CD
Трек | Старт | Длительность | Начальный сектор | Конечный сектор --------------------------------------------------------------------- 1 | 0:00.24 | 2:26.01 | 24 | 10974 2 | 2:26.25 | 2:38.18 | 10975 | 22842 3 | 5:04.43 | 3:13.50 | 22843 | 37367 4 | 8:18.18 | 7:46.22 | 37368 | 72339 5 | 16:04.40 | 2:45.47 | 72340 | 84761 6 | 18:50.12 | 5:14.30 | 84762 | 108341 7 | 24:04.42 | 10:36.66 | 108342 | 156107 8 | 34:41.33 | 4:30.18 | 156108 | 176375 9 | 39:11.51 | 1:16.63 | 176376 | 182138 10 | 40:28.39 | 1:17.34 | 182139 | 187947 11 | 41:45.73 | 1:27.27 | 187948 | 194499 12 | 43:13.25 | 2:11.24 | 194500 | 204348 13 | 45:24.49 | 2:42.30 | 204349 | 216528 14 | 48:07.04 | 3:35.34 | 216529 | 232687 15 | 51:42.38 | 2:55.39 | 232688 | 245851 16 | 54:38.02 | 3:04.66 | 245852 | 259717 17 | 57:42.68 | 1:53.62 | 259718 | 268254 18 | 59:36.55 | 4:44.13 | 268255 | 289567 19 | 64:20.68 | 4:43.63 | 289568 | 310855
Характеристики диапазона извлечения и сообщения об ошибках
Выбранный диапазон
Имя файла O:\!Rips\Dmitri Chostakovitch - Krokodil - CD1.wav
Пиковый уровень 100.0 % Скорость извлечения 2.2 X Качество диапазона 100.0 % CRC теста B3CFDED5 CRC копии B3CFDED5 Копирование... OK
Ошибок не произошло
AccurateRip: сводка
Трек 1 : извлечено точно (доверие 2) [91F6E6C5] (AR v1)Трек 2 : извлечено точно (доверие 2) [AFCAA6E0] (AR v1)Трек 3 : извлечено точно (доверие 2) [6855A7D6] (AR v1)Трек 4 : извлечено точно (доверие 2) [AD3B0125] (AR v1)Трек 5 : извлечено точно (доверие 2) [7E56EF93] (AR v1)Трек 6 : извлечено точно (доверие 2) [806E8925] (AR v1)Трек 7 : извлечено точно (доверие 2) [7BBC48A9] (AR v1)Трек 8 : извлечено точно (доверие 2) [02523981] (AR v1)Трек 9 : извлечено точно (доверие 2) [72D8191F] (AR v1)Трек 10 : извлечено точно (доверие 2) [63298AB3] (AR v1)Трек 11 : извлечено точно (доверие 2) [78C61CF6] (AR v1)Трек 12 : извлечено точно (доверие 2) [13528CF1] (AR v1)Трек 13 : извлечено точно (доверие 2) [0C8AF425] (AR v1)Трек 14 : извлечено точно (доверие 2) [1ECC95C8] (AR v1)Трек 15 : извлечено точно (доверие 2) [13C07129] (AR v1)Трек 16 : извлечено точно (доверие 2) [EA602AFA] (AR v1)Трек 17 : извлечено точно (доверие 2) [7378D6DC] (AR v1)Трек 18 : извлечено точно (доверие 2) [BD6D8E49] (AR v1)Трек 19 : извлечено точно (доверие 2) [44476317] (AR v1)
Все треки извлечены точно
Конец отчёта
==== Контрольная сумма отчёта F60C5636025C7852AF04AF31DC98FF48A48220F66FD23C31A093B06C3BFF20E0 ====

CD2

Exact Audio Copy V1.0 beta 3 from 29. August 2011
Отчёт EAC об извлечении, выполненном 25. августа 2013, 14:22
Dmitri Chostakovitch / Krokodil - CD2
Дисковод: HL-DT-STDVDRAM GT33N Adapter: 1 ID: 0
Режим чтения : ДостоверностьИспользование точного потока : ДаОтключение кэша аудио : ДаИспользование указателей C2 : Нет
Коррекция смещения при чтении : 103Способность читать области Lead-in и Lead-out : НетЗаполнение пропущенных сэмплов тишиной : ДаУдаление блоков с тишиной в начале и конце : НетПри вычислениях CRC использовались нулевые сэмплы : ДаИнтерфейс : Встроенный Win32-интерфейс для Win NT/2000
Выходной формат : Пользовательский кодировщикВыбранный битрейт : 1024 kBit/sКачество : ВысокийДобавление ID3-тега : ДаУтилита сжатия : C:\Program Files (x86)\Exact Audio Copy\Flac\flac.exeДополнительные параметры : -8 -V -T "ALBUMARTIST=%albumartist%" -T "ALBUM=%albumtitle%" -T "DATE=%year%" -T "TRACKTOTAL=%numtracks%" -T "GENRE=%genre%" -T "COMMENT=%comment%" -T "PERFORMER=%albuminterpret%" -T "COMPOSER=%composer%" %source% -o %dest%
TOC извлечённого CD
Трек | Старт | Длительность | Начальный сектор | Конечный сектор --------------------------------------------------------------------- 1 | 0:00.00 | 2:38.21 | 0 | 11870 2 | 2:38.21 | 5:48.69 | 11871 | 38039 3 | 8:27.15 | 1:13.34 | 38040 | 43548 4 | 9:40.49 | 2:50.16 | 43549 | 56314 5 | 12:30.65 | 2:24.61 | 56315 | 67175 6 | 14:55.51 | 4:44.09 | 67176 | 88484 7 | 19:39.60 | 3:52.34 | 88485 | 105918 8 | 23:32.19 | 10:11.66 | 105919 | 151809 9 | 33:44.10 | 7:03.27 | 151810 | 183561 10 | 40:47.37 | 13:28.32 | 183562 | 244193 11 | 54:15.69 | 4:25.08 | 244194 | 264076 12 | 58:41.02 | 3:55.12 | 264077 | 281713 13 | 62:36.14 | 2:06.39 | 281714 | 291202 14 | 64:42.53 | 2:23.14 | 291203 | 301941
Характеристики диапазона извлечения и сообщения об ошибках
Выбранный диапазон
Имя файла O:\!Rips\Dmitri Chostakovitch - Krokodil - CD2.wav
Пиковый уровень 100.0 % Скорость извлечения 2.2 X Качество диапазона 100.0 % CRC теста F44D2BB5 CRC копии F44D2BB5 Копирование... OK
Ошибок не произошло
AccurateRip: сводка
Трек 1 : извлечено точно (доверие 3) [617DDEF2] (AR v1)Трек 2 : извлечено точно (доверие 3) [C6683A86] (AR v1)Трек 3 : извлечено точно (доверие 3) [D74D1C6C] (AR v1)Трек 4 : извлечено точно (доверие 3) [6AB3346C] (AR v1)Трек 5 : извлечено точно (доверие 3) [07C1DA49] (AR v1)Трек 6 : извлечено точно (доверие 3) [ACF15C2C] (AR v1)Трек 7 : извлечено точно (доверие 3) [729E2D73] (AR v1)Трек 8 : извлечено точно (доверие 3) [9475236F] (AR v1)Трек 9 : извлечено точно (доверие 3) [D3271D60] (AR v1)Трек 10 : извлечено точно (доверие 3) [4CCDCAC0] (AR v1)Трек 11 : извлечено точно (доверие 3) [9239C503] (AR v1)Трек 12 : извлечено точно (доверие 3) [C0C83AB2] (AR v1)Трек 13 : извлечено точно (доверие 3) [EABFADC9] (AR v1)Трек 14 : извлечено точно (доверие 3) [BECEAF2E] (AR v1)
Все треки извлечены точно
Конец отчёта
==== Контрольная сумма отчёта C02F87DA9C3FF790481716BA88BA299AFEF9D5484DD2476BF6A33CF212B298C2 ====

Содержание индексной карты (.CUE)CD1

REM GENRE "Chamber Music"REM DATE 2004REM DISCID 0B103013REM COMMENT "ExactAudioCopy v1.0b3"PERFORMER "Dmitri Chostakovitch"TITLE "Krokodil - CD1"FILE "Dmitri Chostakovitch - Krokodil - CD1.flac" WAVE TRACK 01 AUDIO TITLE "Preface a l'edition complete de mes oeuvres et breves reflexions sur cette preface, pour piano et basse, sur un texte de Dmitri Chostakovitch, op.123, 1966" PERFORMER "Dmitri Chostakovitch" INDEX 00 00:00:00 INDEX 01 00:00:24 TRACK 02 AUDIO TITLE "Prelude et fugue en do majeur no1, extrait des preludes et fugues op.87 - I - Prelude" PERFORMER "Dmitri Chostakovitch" INDEX 00 02:23:66 INDEX 01 02:26:25 TRACK 03 AUDIO TITLE "Prelude et fugue en do majeur no1, extrait des preludes et fugues op.87 - II - Fugue" PERFORMER "Dmitri Chostakovitch" INDEX 01 05:04:43 TRACK 04 AUDIO TITLE "Trio para violino, violoncelo e piano em mi menor, op.67, 1944 - I - Andante - Moderato" PERFORMER "Dmitri Chostakovitch" INDEX 00 08:15:46 INDEX 01 08:18:18 TRACK 05 AUDIO TITLE "Trio para violino, violoncelo e piano em mi menor, op.67, 1944 - II - Allegro con brio" PERFORMER "Dmitri Chostakovitch" INDEX 01 16:04:40 TRACK 06 AUDIO TITLE "Trio para violino, violoncelo e piano em mi menor, op.67, 1944 - III - Largo" PERFORMER "Dmitri Chostakovitch" INDEX 00 18:50:11 INDEX 01 18:50:12 TRACK 07 AUDIO TITLE "Trio para violino, violoncelo e piano em mi menor, op.67, 1944 - IV - Allegretto" PERFORMER "Dmitri Chostakovitch" INDEX 01 24:04:42 TRACK 08 AUDIO TITLE "Cinq Romances pour basse et piano, sur des textes de la revue Krokodil no24, du 30 aout 1965, op.121 - I - Preuve ecrite" PERFORMER "Dmitri Chostakovitch" INDEX 00 34:37:02 INDEX 01 34:41:33 TRACK 09 AUDIO TITLE "Cinq Romances pour basse et piano, sur des textes de la revue Krokodil no24, du 30 aout 1965, op.121 - II - Un reve difficile a realiser" PERFORMER "Dmitri Chostakovitch" INDEX 01 39:11:51 TRACK 10 AUDIO TITLE "Cinq Romances pour basse et piano, sur des textes de la revue Krokodil no24, du 30 aout 1965, op.121 - III - Discretion" PERFORMER "Dmitri Chostakovitch" INDEX 01 40:28:39 TRACK 11 AUDIO TITLE "Cinq Romances pour basse et piano, sur des textes de la revue Krokodil no24, du 30 aout 1965, op.121 - IV - Irinka et le berger" PERFORMER "Dmitri Chostakovitch" INDEX 01 41:45:73 TRACK 12 AUDIO TITLE "Cinq Romances pour basse et piano, sur des textes de la revue Krokodil no24, du 30 aout 1965, op.121 - V - Plaisir exagere" PERFORMER "Dmitri Chostakovitch" INDEX 01 43:13:25 TRACK 13 AUDIO TITLE "Sept Romances pour soprano, violon, violoncelle et piano, sur des textes d'Alexander Blok - I - Chanson d'Ophelie" PERFORMER "Dmitri Chostakovitch" INDEX 00 45:21:50 INDEX 01 45:24:49 TRACK 14 AUDIO TITLE "Sept Romances pour soprano, violon, violoncelle et piano, sur des textes d'Alexander Blok - II - Gamayoun, l'oiseau prophete" PERFORMER "Dmitri Chostakovitch" INDEX 01 48:07:04 TRACK 15 AUDIO TITLE "Sept Romances pour soprano, violon, violoncelle et piano, sur des textes d'Alexander Blok - III - Cette nuit agitee" PERFORMER "Dmitri Chostakovitch" INDEX 01 51:42:38 TRACK 16 AUDIO TITLE "Sept Romances pour soprano, violon, violoncelle et piano, sur des textes d'Alexander Blok - IV - La ville dort" PERFORMER "Dmitri Chostakovitch" INDEX 00 54:38:01 INDEX 01 54:38:02 TRACK 17 AUDIO TITLE "Sept Romances pour soprano, violon, violoncelle et piano, sur des textes d'Alexander Blok - V - L'orage" PERFORMER "Dmitri Chostakovitch" INDEX 01 57:42:68 TRACK 18 AUDIO TITLE "Sept Romances pour soprano, violon, violoncelle et piano, sur des textes d'Alexander Blok - VI - Signes secrets" PERFORMER "Dmitri Chostakovitch" INDEX 01 59:36:55 TRACK 19 AUDIO TITLE "Sept Romances pour soprano, violon, violoncelle et piano, sur des textes d'Alexander Blok - VII - Musique" PERFORMER "Dmitri Chostakovitch" INDEX 01 64:20:68

CD2

REM GENRE "Chamber Music"REM DATE 2004REM DISCID CA0FB90EREM COMMENT "ExactAudioCopy v1.0b3"PERFORMER "Dmitri Chostakovitch"TITLE "Krokodil - CD2"FILE "Dmitri Chostakovitch - Krokodil - CD2.flac" WAVE TRACK 01 AUDIO TITLE "Prelude et fugue en mi mineur no4, extrait des preludes et fugues op.87 - I - Prelude" PERFORMER "Dmitri Chostakovitch" INDEX 01 00:00:00 TRACK 02 AUDIO TITLE "Prelude et fugue en mi mineur no4, extrait des preludes et fugues op.87 - II - Fugue" PERFORMER "Dmitri Chostakovitch" INDEX 01 02:38:21 TRACK 03 AUDIO TITLE "Satires, sur des textes de Sacha Tchiorny, op.109, 1961 - I - A un critique" PERFORMER "Dmitri Chostakovitch" INDEX 00 08:23:51 INDEX 01 08:27:15 TRACK 04 AUDIO TITLE "Satires, sur des textes de Sacha Tchiorny, op.109, 1961 - II - L'eveil du printemps" PERFORMER "Dmitri Chostakovitch" INDEX 00 09:40:48 INDEX 01 09:40:49 TRACK 05 AUDIO TITLE "Satires, sur des textes de Sacha Tchiorny, op.109, 1961 - III - Les descendants" PERFORMER "Dmitri Chostakovitch" INDEX 01 12:30:65 TRACK 06 AUDIO TITLE "Satires, sur des textes de Sacha Tchiorny, op.109, 1961 - IV - Le malentendu" PERFORMER "Dmitri Chostakovitch" INDEX 00 14:55:50 INDEX 01 14:55:51 TRACK 07 AUDIO TITLE "Satires, sur des textes de Sacha Tchiorny, op.109, 1961 - V - La Sonate a Kreutzer" PERFORMER "Dmitri Chostakovitch" INDEX 01 19:39:60 TRACK 08 AUDIO TITLE "Sonate pour violon et piano en sol majeur, op.134, 1969 - I - Andante" PERFORMER "Dmitri Chostakovitch" INDEX 00 23:26:72 INDEX 01 23:32:19 TRACK 09 AUDIO TITLE "Sonate pour violon et piano en sol majeur, op.134, 1969 - II - Allegretto" PERFORMER "Dmitri Chostakovitch" INDEX 01 33:44:10 TRACK 10 AUDIO TITLE "Sonate pour violon et piano en sol majeur, op.134, 1969 - III - Largo - Andante" PERFORMER "Dmitri Chostakovitch" INDEX 01 40:47:37 TRACK 11 AUDIO TITLE "Quatre Strophes du Capitaine Lebiadkine pour basse et piano, op.146, 1974 - I - L'amour du Capitaine Lebiadkine" PERFORMER "Dmitri Chostakovitch" INDEX 00 54:13:05 INDEX 01 54:15:69 TRACK 12 AUDIO TITLE "Quatre Strophes du Capitaine Lebiadkine pour basse et piano, op.146, 1974 - II - Le cafard" PERFORMER "Dmitri Chostakovitch" INDEX 01 58:41:02 TRACK 13 AUDIO TITLE "Quatre Strophes du Capitaine Lebiadkine pour basse et piano, op.146, 1974 - III - Un bal costume au profit des gouvernantes" PERFORMER "Dmitri Chostakovitch" INDEX 01 62:36:14 TRACK 14 AUDIO TITLE "Quatre Strophes du Capitaine Lebiadkine pour basse et piano, op.146, 1974 - IV - Un personnalite lumineuse" PERFORMER "Dmitri Chostakovitch" INDEX 01 64:42:53



Показать сообщения:    

Текущее время: 03-Дек 01:22

Часовой пояс: UTC + 3


Вы не можете начинать темы
Вы не можете отвечать на сообщения
Вы не можете редактировать свои сообщения
Вы не можете удалять свои сообщения
Вы не можете голосовать в опросах
Вы не можете прикреплять файлы к сообщениям
Вы не можете скачивать файлы