(Classical) Жозеф Кантелуб - Песни Оверни (Нетания Даврат) / Canteloube - Songs Of The Auvergne (Complete), Chants du Languedoc, des Pays Basques (Netania Davrath, Orchestra cond. by Pierre de la Roche) - 2CD - 1996, FLAC (image+.cue) lossless


 

[Цитировать]

Canteloube - Songs Of The Auvergne (Complete) - Netania Davrath - 2CD
Жанр: Classical, Vocal
Страна-производитель диска: USA
Год издания диска: 1996
Издатель (лейбл): Vanguard Classics
Номер по каталогу: SVC 38/39
Дата записи: 1963-66
Аудиокодек: FLAC
Тип рипа: image+.cue
Битрейт аудио: lossless
Продолжительность: 68.04 + 51.29
Источник: скачано с
Наличие сканов в содержимом раздачи: да
Треклист:
Joseph Canteloube (1879-1957)
Chants d'Auvergne, pour voix et orchestre (1923-1955)
CD1
Chants d'Auvergne, Series 1 (1923)
01. No. 1: La pastoura al camps (02' 41'')
02. No. 2: Bailero (06' 40'')
03. No. 3: Trois Bourrees (06' 47'')
Chants d'Auvergne, Series 2 (1924)
04. No. 1: Pastourelle "E passo de dossai" (02' 57'')
05. No. 2: L'Antoueno (03' 00'')
06. No. 3: La pastrouletta e lou chibalie (01' 51'')
07. No. 4: La delaissado (05' 01'')
08. No. 5: Deux bourrees (05' 23'')
Chants d'Auvergne, Series 3 (1927)
09. No. 1: Lo fiolaire (02' 40'')
10. No. 2: Passo pel prat (04' 01'')
11. No. 3: Lou boussu (02' 28'')
12. No. 4: Brezairola (03' 41'')
13. No. 5: Malurous qu'o uno fenno (01' 36'')
Chants d'Auvergne, Series 4 (1930)
14. No. 1: Jou l'pount d'o Mirabel (03' 46'')
15. No. 2: Oi, ayai (03' 38'')
16. No. 3: Pour l'enfant (02' 39'')
17. No. 4: Chut, Chut (02' 39'')
18. No. 5: Pastorale "Bailero, lero, lero" (04' 06'')
19. No. 6: Lou Coucut (02' 10'')
CD2
Chants d'Auvergne, Series 5 (1955)
01. No. 1: Obal, din lo coumbelo (03' 17'')
02. No. 2: Quan z'eyro petitoune (02' 43'')
03. No. 3: La-haut, sur le rocher (03' 30'')
04. No. 4: He! Beyla-z-y d'au fe! (01' 51'')
05. No. 5: Postouro, se tu m'aymo (01' 48'')
06. No. 6: Te, l'co, te! (00' 42'')
07. No. 7: Uno, jionto postouro (02' 08'')
08. No. 8: Lou diziou be (01' 16'')
Chants du Languedoc, des Pays Basques (1947), arr. for orchestra Gershon Kingsley*
09. Chants paysans-Auvergne et Quercy: La mere Antoine (01' 26'')
10. Chants paysans-Quercy: Oh ! Madelon, je dois partir (02' 00'')
11. Chants paysans Bearn: Rossignolet qui chants (03' 51'')
12. Chants du Languedoc: La fille d'un paysan (01' 57'')
13. Chants des Pays Basques: Comment donc savoir (02' 01'')
14. Chants du Languedoc: Mon pere m'a plasee (02' 19'')
15. Chants paysans-Quercy: Lorsque le meunier (01' 35'')
16. Chants du Languedoc: O up ! (01' 23'')
17. Chants des Pays Basques: Le premier de tous les oiseux (02' 15'')
18. Chants du Languedoc: Moi j'ai un homme (01' 24'')
19. Chants des Pays Basques: J'ai un douce amie (01' 52'')
20. Chants des Pays Basques: Dans le tombeau (04' 00'')
21. Chants des Pays Basques: Allons, beau rossignol (02' 03'')
22. Chants du Languedoc: Quand Marion va au moulin (02' 48'')
23. Chants paysans-Quercy: Reveillez-vous, belle endormie (02' 59'')
Исполнители:
Netania Davrath, soprano
Orchestra cond. by Pierre de la Roche
* cond. Gershon Kingsley
Baumgarten Hall, Vienna, Austria, 1963-1966

Лог создания рипа

Exact Audio Copy V0.99 prebeta 4 from 23. January 2008
EAC extraction logfile from 20. February 2010, 18:48
Vanguard Classics / Canteloube: Songs Of The Auvergne
Used drive : ATAPI DVD DW 8X16X8X16 Adapter: 1 ID: 1
Read mode : SecureUtilize accurate stream : YesDefeat audio cache : YesMake use of C2 pointers : No
Read offset correction : 618Overread into Lead-In and Lead-Out : NoFill up missing offset samples with silence : YesDelete leading and trailing silent blocks : NoNull samples used in CRC calculations : NoUsed interface : Native Win32 interface for Win NT & 2000
Used output format : Internal WAV RoutinesSample format : 44.100 Hz; 16 Bit; Stereo
TOC of the extracted CD
Track | Start | Length | Start sector | End sector --------------------------------------------------------- 1 | 0:00.32 | 2:40.70 | 32 | 12101 2 | 2:41.27 | 6:41.68 | 12102 | 42244 3 | 9:23.20 | 6:47.22 | 42245 | 72791 4 | 16:10.42 | 2:56.40 | 72792 | 86031 5 | 19:07.07 | 3:00.48 | 86032 | 99579 6 | 22:07.55 | 1:51.02 | 99580 | 107906 7 | 23:58.57 | 5:00.48 | 107907 | 130454 8 | 28:59.30 | 5:24.40 | 130455 | 154794 9 | 34:23.70 | 2:41.40 | 154795 | 166909 10 | 37:05.35 | 4:02.60 | 166910 | 185119 11 | 41:08.20 | 2:27.52 | 185120 | 196196 12 | 43:35.72 | 3:41.53 | 196197 | 212824 13 | 47:17.50 | 1:38.52 | 212825 | 220226 14 | 48:56.27 | 3:46.40 | 220227 | 237216 15 | 52:42.67 | 3:38.40 | 237217 | 253606 16 | 56:21.32 | 2:39.33 | 253607 | 265564 17 | 59:00.65 | 2:40.20 | 265565 | 277584 18 | 61:41.10 | 4:06.27 | 277585 | 296061 19 | 65:47.37 | 2:11.43 | 296062 | 305929
Range status and errors
Selected range
Filename C:\cdrips\Canteloube Songs Of The Auvergne CD 1.wav
Peak level 100.0 % Range quality 100.0 % Copy CRC E05F91BA Copy OK
No errors occurred
AccurateRip summary
Track 1 not present in databaseTrack 2 not present in databaseTrack 3 not present in databaseTrack 4 not present in databaseTrack 5 not present in databaseTrack 6 not present in databaseTrack 7 not present in databaseTrack 8 not present in databaseTrack 9 not present in databaseTrack 10 not present in databaseTrack 11 not present in databaseTrack 12 not present in databaseTrack 13 not present in databaseTrack 14 not present in databaseTrack 15 not present in databaseTrack 16 not present in databaseTrack 17 not present in databaseTrack 18 not present in databaseTrack 19 not present in database
None of the tracks are present in the AccurateRip database
End of status report
________________________________
Exact Audio Copy V0.99 prebeta 4 from 23. January 2008
EAC extraction logfile from 20. February 2010, 19:06
Netania Davrath / Songs Of The Auvergne D2
Used drive : ATAPI DVD DW 8X16X8X16 Adapter: 1 ID: 1
Read mode : SecureUtilize accurate stream : YesDefeat audio cache : YesMake use of C2 pointers : No
Read offset correction : 618Overread into Lead-In and Lead-Out : NoFill up missing offset samples with silence : YesDelete leading and trailing silent blocks : NoNull samples used in CRC calculations : NoUsed interface : Native Win32 interface for Win NT & 2000
Used output format : Internal WAV RoutinesSample format : 44.100 Hz; 16 Bit; Stereo
TOC of the extracted CD
Track | Start | Length | Start sector | End sector --------------------------------------------------------- 1 | 0:00.32 | 3:17.55 | 32 | 14861 2 | 3:18.12 | 2:42.20 | 14862 | 27031 3 | 6:00.32 | 3:31.63 | 27032 | 42919 4 | 9:32.20 | 1:52.67 | 42920 | 51386 5 | 11:25.12 | 1:48.25 | 51387 | 59511 6 | 13:13.37 | 0:42.20 | 59512 | 62681 7 | 13:55.57 | 2:06.65 | 62682 | 72196 8 | 16:02.47 | 1:16.18 | 72197 | 77914 9 | 17:18.65 | 1:25.15 | 77915 | 84304 10 | 18:44.05 | 2:00.17 | 84305 | 93321 11 | 20:44.22 | 3:51.10 | 93322 | 110656 12 | 24:35.32 | 1:57.28 | 110657 | 119459 13 | 26:32.60 | 2:01.05 | 119460 | 128539 14 | 28:33.65 | 2:19.57 | 128540 | 139021 15 | 30:53.47 | 1:35.53 | 139022 | 146199 16 | 32:29.25 | 1:22.70 | 146200 | 152419 17 | 33:52.20 | 2:15.15 | 152420 | 162559 18 | 36:07.35 | 1:24.17 | 162560 | 168876 19 | 37:31.52 | 1:52.00 | 168877 | 177276 20 | 39:23.52 | 4:00.55 | 177277 | 195331 21 | 43:24.32 | 2:03.30 | 195332 | 204586 22 | 45:27.62 | 2:48.23 | 204587 | 217209 23 | 48:16.10 | 3:00.10 | 217210 | 230719
Range status and errors
Selected range
Filename C:\cdrips\Canteloube Songs Of The Auvergne CD 2.wav
Peak level 100.0 % Range quality 99.9 % Copy CRC 06644750 Copy OK
No errors occurred
AccurateRip summary
Track 1 not present in databaseTrack 2 not present in databaseTrack 3 not present in databaseTrack 4 not present in databaseTrack 5 not present in databaseTrack 6 not present in databaseTrack 7 not present in databaseTrack 8 not present in databaseTrack 9 not present in databaseTrack 10 not present in databaseTrack 11 not present in databaseTrack 12 not present in databaseTrack 13 not present in databaseTrack 14 not present in databaseTrack 15 not present in databaseTrack 16 not present in databaseTrack 17 not present in databaseTrack 18 not present in databaseTrack 19 not present in databaseTrack 20 not present in databaseTrack 21 not present in databaseTrack 22 not present in databaseTrack 23 not present in database
None of the tracks are present in the AccurateRip database
End of status report

Лог проверки качества

AUDIOCHECKER v2.0 beta (build 457) - by Dester - opdester@freemail.hu~~~~~~~~~~~~~~~~~~~~~~~~~~~~~~~~~~
Started at: среда, 07. 08. 2013. - 16:42.552 files found
1 -===- E:\Music\Classical\Lossless\Canteloube\Canteloube - Songs Of The Auvergne - Netania Davrath (2CD)\cd1.flac Extracted successfully Conclusion: this track is CDDA with probability 100% Tempfile successfully deleted.
2 -===- E:\Music\Classical\Lossless\Canteloube\Canteloube - Songs Of The Auvergne - Netania Davrath (2CD)\cd2.flac Extracted successfully Conclusion: this track is CDDA with probability 99% Tempfile successfully deleted.
Finished at: среда, 07. 08. 2013. - 17:32.03 (operation time: 0:49.07)
Доп. информация: Овернь - в прошлом горная провинция королевства Франция, обязана своим названием могущественному галльскому племени арвернов, под влиянием которого находились земли Лангедока и Аквитании. Это регион с богатыми культурными традициями и собственными региональными языками - окситанским (диалекты - овернский, лангедокский, виваро-альпийский) и бурбонский диалект языка ойль. Именно здесь в Оверни и родился композитор Жозеф Кантелуб (1879-1957) - выходец "Схола канторум", ученик Венсана д’Энди и большой знаток музыкального фольклора. Он в течении многих лет самозабвенно собирал песни различных областей Франции - Ангумуа, Лангедока, Керси, Туренн, страны Басков, но особенно своего родного региона - области Овернь. В общей сложности Кантелубом создано 5 серий "Песен Оверни" (первые две изданы в 1923-24 году, третья и четвёртая - в 1927 и 1930, последняя - в 1955), которые талантливо обработаны композитором в лучших традициях французской звукописи для голоса в сопровождении оркестра. Запись всех "Песен Оверни", сделанная украинской певицей Нетанией Даврат (1931-1987) и дирижёром Пьером де ла Рошем в середине 60-х знатоки считают лучшей. Нетания поёт на оригинальном овернском диалекте - красивый голос, очаровательные песни, изумительные гармонические сочетания. На втором диске записаны также "Песни Лангедока и Страны басков" (1947) в оркестровке Гершона Кингсли.
Все французские песни могут быть разделены на два основных типа: балладный, когда рассказывается какое-нибудь событие, особенно поразившее народное воображение, и лирический, с обязательным припевом, пение которого заменяло музыку или сопутствовало ей на деревенских балах - таких здесь большинство. В этих песнях бежит и смеется веселая, как вино, и горячая, как солнце, галльская кровь. Зубоскальство над мужчиной и галантность по отношению к женщине — их главные темы. Однако, и кельтская задумчивость наложила на них свой отпечаток. Тексты песен передают и отражают все земное - рассказы о пастухах и пастушках, о рыцарских приключениях, любовные и бытовые истории, сказания и заповеди духовных пастырей.



Показать сообщения:    

Текущее время: 22-Янв 04:44

Часовой пояс: UTC + 3


Вы не можете начинать темы
Вы не можете отвечать на сообщения
Вы не можете редактировать свои сообщения
Вы не можете удалять свои сообщения
Вы не можете голосовать в опросах
Вы не можете прикреплять файлы к сообщениям
Вы не можете скачивать файлы