(Choral / Vocal Music / Early Music) The Caged Byrd (Music for voices, viols & harpsichord, from a time of persecution by William Byrd - Vol.2) / I Fagiolini, Concordia, Sophie Yates - 1997, APE (image+.cue) lossless


 

[Цитировать]

The Caged Byrd - I Fagiolini, Concordia, Sophie Yates
Жанр: Choral / Vocal Music / Early Music
Страна-производитель диска: EU
Год издания диска: 1997
Издатель (лейбл): Chandos
Номер по каталогу: CHAN 0609
Дата записи: June & August 1996
Аудиокодек: APE
Тип рипа: image+.cue
Битрейт аудио: lossless
Продолжительность: 78:14
Источник: собственный рип
Наличие сканов в содержимом раздачи: нет
Треклист:
William Byrd (1539/40-1623)
1. Vigilate
2. Crowned with flow'rs and lilies
3. The Tennthe Pavian, Sir William Petre
4. O quam gloriosum est regnum
5. Rejoice unto the Lord
6. Deus, venerunt gentes
7. Rowland
8. Why do I use my paper, inke and penne?
Philippe de Monte (1521-1603)
9. Super flumina Babylonis
William Byrd
10. Quomodo cantabimus
11. Walsingham
12. The noble famous Queen
13. Domine, tu iurasti
14. The Queen's Alman
15. Laudibus in sanctis
Исполнители:
Sophie Yates - harpsichord
Concordia
I Fagiolini

Лог создания рипа

Exact Audio Copy V0.99 prebeta 5 from 4. May 2009
Звіт EAC про видобування, котре виконане 29. липня 2013, 11:32
I Fagiolini / The Caged Byrd
Дисковод: SONY DVD RW DRU-190A Adapter: 0 ID: 0
Режим читання : ТочнийВикористати точний потік : ТакВимкнути аудіо кеш : ТакЗастосувати мітки C2 : Ні
Корекція зміщення при читанні : 6Екстрачитання областей Lead-in і Lead-out : НіЗаповнення пропущених семплів тишею : ТакВидалення блоків з тишею на початку і кінці : НіПри вирахуванні CRC використовувались нульові семпли : ТакВикористаний інтерфейс : Встановлений зовнішній ASPI-інтерфейс
Застосований вихідний формат : Кодер Monkey's Audio LosslessОбраний бітрейт : High Lossless CompressionЯкість : ВисокийДодати тег ID3 : ТакКомпресор командного рядка : D:\Program Files\Monkey's Audio\MAC.exeДодаткові параметри командного рядка : %source% %dest% -c3000
TOC видобутого CD
Трек | Старт | Довжина | Початковий сектор | Кінцевий сектор ------------------------------------------------------------------ 1 | 0:00.00 | 3:48.20 | 0 | 17119 2 | 3:48.20 | 5:12.30 | 17120 | 40549 3 | 9:00.50 | 4:12.30 | 40550 | 59479 4 | 13:13.05 | 3:46.00 | 59480 | 76429 5 | 16:59.05 | 4:47.60 | 76430 | 98014 6 | 21:46.65 | 12:58.10 | 98015 | 156374 7 | 34:45.00 | 2:04.57 | 156375 | 165731 8 | 36:49.57 | 6:51.55 | 165732 | 196611 9 | 43:41.37 | 5:05.63 | 196612 | 219549 10 | 48:47.25 | 6:01.45 | 219550 | 246669 11 | 54:48.70 | 8:23.55 | 246670 | 284449 12 | 63:12.50 | 1:45.55 | 284450 | 292379 13 | 64:58.30 | 4:53.12 | 292380 | 314366 14 | 69:51.42 | 3:27.48 | 314367 | 329939 15 | 73:19.15 | 4:54.60 | 329940 | 352049
Статус діапазону і помилки
Обраний діапазон
Ім'я файлу L:\I Fagiolini - The Caged Byrd\I Fagiolini - The Caged Byrd.wav
Піковий рівень 91.7 % Якість діапазону 100.0 % CRC тесту 16B93FA2 CRC копії 16B93FA2 Копіювання... OK
Помилки не траплялися
Звіт Точного Видобування
Трек 1 точність не визначена (достовірність 1) [D6460A06], AccurateRip повернув [67FCD349]Трек 2 точність не визначена (достовірність 1) [D0CCF0EA], AccurateRip повернув [AA74DE21]Трек 3 точність не визначена (достовірність 1) [C78D794E], AccurateRip повернув [DC4B26A4]Трек 4 точність не визначена (достовірність 1) [81A8DC51], AccurateRip повернув [4022A6FE]Трек 5 точність не визначена (достовірність 1) [87204E86], AccurateRip повернув [66DB06C5]Трек 6 точність не визначена (достовірність 1) [43770F4B], AccurateRip повернув [C39772A1]Трек 7 точність не визначена (достовірність 1) [1A6B18E3], AccurateRip повернув [DD2DC18E]Трек 8 точність не визначена (достовірність 1) [28245FC0], AccurateRip повернув [7135B6D9]Трек 9 точність не визначена (достовірність 1) [F6C9BB61], AccurateRip повернув [6958B294]Трек 10 точність не визначена (достовірність 1) [8C9D177E], AccurateRip повернув [5CB95A5A]Трек 11 точність не визначена (достовірність 1) [141EA271], AccurateRip повернув [30926EEF]Трек 12 точність не визначена (достовірність 1) [659148F9], AccurateRip повернув [120F6231]Трек 13 точність не визначена (достовірність 1) [ADF19F58], AccurateRip повернув [50933C63]Трек 14 точність не визначена (достовірність 1) [AEDD8DB0], AccurateRip повернув [BC04A144]Трек 15 точність не визначена (достовірність 1) [5A494536], AccurateRip повернув [5BE4A417]
Жоден трек не пройшов перевірку на точністьВ Вашій базі може бути інший варіант штамповки диска
Кінець звіту



Показать сообщения:    

Текущее время: 04-Дек 09:10

Часовой пояс: UTC + 3


Вы не можете начинать темы
Вы не можете отвечать на сообщения
Вы не можете редактировать свои сообщения
Вы не можете удалять свои сообщения
Вы не можете голосовать в опросах
Вы не можете прикреплять файлы к сообщениям
Вы не можете скачивать файлы