(Choral / Vocal Music / Early Music) The Early Byrd (Early works for voices, viols and virginals by William Byrd - Vol.1) / I Fagiolini, Fretwork, Sophie Yates - 1995, APE (image+.cue) lossless


 

[Цитировать]

The Early Byrd - I Fagiolini, Fretwork, Sophie Yates
Жанр: Choral / Vocal Music / Early Music
Страна-производитель диска: EU
Год издания диска: 1995
Издатель (лейбл): Chandos
Номер по каталогу: CHAN 0578
Дата записи: November 1994
Аудиокодек: APE
Тип рипа: image+.cue
Битрейт аудио: lossless
Продолжительность: 73:00
Источник: собственный рип
Наличие сканов в содержимом раздачи: нет
Треклист:
William Byrd (1543-1623)
Early works for voices, viols and virginals
1. Attollite portas
2. Triumph with pleasant melody
3. O Lord, how vain
4. All in a Garden Green
5. Domine secundum actum meum
6. Truth at the first
7. Who likes to love
8. Wolsey's Wilde
9. Da mihi auxilium
10. Farewell, false love
11. O Mistrys Myne
12. Miserere mihi, Domine
13. My mind to me a kingdom is
14. La volta
15. Ad Dominum cum tribularer
Исполнители:
I Fagiolini
Robert Hollingworth - director
Fretwork
Sophie Yates - virginals

Лог создания рипа

Exact Audio Copy V0.99 prebeta 5 from 4. May 2009
Звіт EAC про видобування, котре виконане 29. липня 2013, 4:31
I Fagiolini / The Early Byrd
Дисковод: SONY DVD RW DRU-190A Adapter: 0 ID: 0
Режим читання : ТочнийВикористати точний потік : ТакВимкнути аудіо кеш : ТакЗастосувати мітки C2 : Ні
Корекція зміщення при читанні : 6Екстрачитання областей Lead-in і Lead-out : НіЗаповнення пропущених семплів тишею : ТакВидалення блоків з тишею на початку і кінці : НіПри вирахуванні CRC використовувались нульові семпли : ТакВикористаний інтерфейс : Встановлений зовнішній ASPI-інтерфейс
Застосований вихідний формат : Кодер Monkey's Audio LosslessОбраний бітрейт : High Lossless CompressionЯкість : ВисокийДодати тег ID3 : ТакКомпресор командного рядка : D:\Program Files\Monkey's Audio\MAC.exeДодаткові параметри командного рядка : %source% %dest% -c3000
TOC видобутого CD
Трек | Старт | Довжина | Початковий сектор | Кінцевий сектор ------------------------------------------------------------------ 1 | 0:00.00 | 4:40.72 | 0 | 21071 2 | 4:40.72 | 3:34.03 | 21072 | 37124 3 | 8:15.00 | 6:55.67 | 37125 | 68316 4 | 15:10.67 | 4:08.33 | 68317 | 86949 5 | 19:19.25 | 7:32.67 | 86950 | 120916 6 | 26:52.17 | 2:59.05 | 120917 | 134346 7 | 29:51.22 | 4:43.35 | 134347 | 155606 8 | 34:34.57 | 1:20.70 | 155607 | 161676 9 | 35:55.52 | 6:40.08 | 161677 | 191684 10 | 42:35.60 | 7:00.70 | 191685 | 223254 11 | 49:36.55 | 4:40.37 | 223255 | 244291 12 | 54:17.17 | 2:16.58 | 244292 | 254549 13 | 56:34.00 | 6:02.07 | 254550 | 281706 14 | 62:36.07 | 1:28.70 | 281707 | 288376 15 | 64:05.02 | 8:55.23 | 288377 | 328524
Статус діапазону і помилки
Обраний діапазон
Ім'я файлу L:\I Fagiolini - The Early Byrd\I Fagiolini - The Early Byrd.wav
Піковий рівень 98.3 % Якість діапазону 100.0 % CRC тесту 146EB920 CRC копії 146EB920 Копіювання... OK
Помилки не траплялися
Звіт Точного Видобування
Трек 1 точність не визначена (достовірність 2) [ADEB7476], AccurateRip повернув [97DB723A]Трек 2 точність не визначена (достовірність 2) [6930D80A], AccurateRip повернув [337C6922]Трек 3 точність не визначена (достовірність 2) [0BC776E8], AccurateRip повернув [B0A8AC7C]Трек 4 точність не визначена (достовірність 2) [BD3ADABF], AccurateRip повернув [DD17CFFC]Трек 5 точність не визначена (достовірність 2) [6A8FF54B], AccurateRip повернув [C763BD8D]Трек 6 точність не визначена (достовірність 2) [7095E0A5], AccurateRip повернув [B2C615F4]Трек 7 точність не визначена (достовірність 2) [5D6A05D4], AccurateRip повернув [DF1FE1F6]Трек 8 точність не визначена (достовірність 2) [843D9A47], AccurateRip повернув [D0B8AD8D]Трек 9 точність не визначена (достовірність 2) [C66C2EF9], AccurateRip повернув [65EE09C1]Трек 10 точність не визначена (достовірність 2) [0ECABE34], AccurateRip повернув [F0DC03EE]Трек 11 точність не визначена (достовірність 2) [B277E089], AccurateRip повернув [0F8C2B03]Трек 12 точність не визначена (достовірність 2) [A3963F8F], AccurateRip повернув [5D9E685B]Трек 13 точність не визначена (достовірність 2) [2607B76B], AccurateRip повернув [82D9A2F6]Трек 14 точність не визначена (достовірність 2) [D8277BB5], AccurateRip повернув [4AFD44A4]Трек 15 точність не визначена (достовірність 2) [989DC7C8], AccurateRip повернув [BA5920F9]
Жоден трек не пройшов перевірку на точністьВ Вашій базі може бути інший варіант штамповки диска
Кінець звіту



Показать сообщения:    

Текущее время: 05-Дек 01:24

Часовой пояс: UTC + 3


Вы не можете начинать темы
Вы не можете отвечать на сообщения
Вы не можете редактировать свои сообщения
Вы не можете удалять свои сообщения
Вы не можете голосовать в опросах
Вы не можете прикреплять файлы к сообщениям
Вы не можете скачивать файлы