(Classical, vocal) Joseph Canteloube - Songs of the Auvergne (Jill Gomez; Royal Liverpool Philharmonie Orchestra, Vernon Handley) (1985) - 1998, WavPack (iso.wv) lossless


 

[Цитировать]

Joseph Canteloube - Songs of the Auvergne
(Jill Gomez; Royal Liverpool Philharmonie Orchestra, Vernon Handley)(1985)
Joseph Canteloube 1879-1957 Жанр: Classical, vocal
Страна-производитель диска: Holland
Год издания диска: 1998
Издатель (лейбл): EMI CLASSICS
Номер по каталогу: 7243 5 72568 2 7
Дата записи: 1985
Аудиокодек: WavPack
Тип рипа: iso.wv
Битрейт аудио: lossless
Продолжительность: 0:47:32
Источник: eMule, shatterhand
Наличие сканов в содержимом раздачи: да
Треклист:
Songs of the Auvergne
Trois Bourrees
01. I. L'aio de rotso (Spring Water) (1:10)
02. II. Ound' onoren gorda? (Where Shall We Go & Graze?) (3:03)
03. III. Obal din lou Limouzi (Down there in Limousin) (2:23)
04. Jou l'pount d'o Mirabel (By Mirabel Bridge) (3:38)
05. Chut, chut (Hush, hush) (1:56)
06. Lou boussu (The Hunchback) (2:09)
07. Postouro, se tu m'aymo (Shepherd Lass, if you love me) (1:24)
08. La delaissado (The Forsaken Girl) (4:56)
09. L'Antoueno (Anthony) (3:08)
10. Bailero (Bailero) (6:23)
11. Passo pel prat (Come through the meadow) (2:57)
12. Lo fiolaire (The Spinning Girl) (2:35)
13. Brezairola (Cradle Song) (3:26)
14. Pastourelle (Shepherd Lass) (3:46)
I5. Lou coucut (The Cuckoo) (1:37)
16. Te, l'eo, te! (Go on, dog!) (0:44)
17. Malurous qu'o uno fenno (Unhappy he who has a wife) (1:26)
Исполнители:
Jill Gomez (soprano)
Royal Liverpool Philharmonie Orchestra
Vernon Handley

Перечень файлов (содержимое) контейнера в текстовом виде.

1. Содержимое CUE-файла.
2. Отчёт ЕАС.
3. Аудиофайл (.wv)
4. Сканы: буклет, диск, (полные) JPEG;
5. тех. данные
6. Сканы front, CD, Back формат jpeg

Лог создания рипа

Exact Audio Copy V1.0 beta 3 from 29. August 2011
EAC extraction logfile from 22. April 2013, 15:45
Gomez/RLPO/Handley / Songs of the Auvergne
Used drive : TSSTcorpCDDVDW SH-S223F Adapter: 3 ID: 0
Read mode : SecureUtilize accurate stream : YesDefeat audio cache : YesMake use of C2 pointers : No
Read offset correction : 6Overread into Lead-In and Lead-Out : NoFill up missing offset samples with silence : YesDelete leading and trailing silent blocks : NoNull samples used in CRC calculations : YesUsed interface : Native Win32 interface for Win NT & 2000
Used output format : User Defined EncoderSelected bitrate : 1024 kBit/sQuality : HighAdd ID3 tag : NoCommand line compressor : C:\Program Files\Exact Audio Copy\wavpack.exeAdditional command line options : -hm %source% %dest%
TOC of the extracted CD
Track | Start | Length | Start sector | End sector --------------------------------------------------------- 1 | 0:00.32 | 1:10.53 | 32 | 5334 2 | 1:11.10 | 3:02.65 | 5335 | 19049 3 | 4:14.00 | 2:26.27 | 19050 | 30026 4 | 6:40.27 | 3:41.48 | 30027 | 46649 5 | 10:22.00 | 1:59.17 | 46650 | 55591 6 | 12:21.17 | 2:12.55 | 55592 | 65546 7 | 14:33.72 | 1:28.03 | 65547 | 72149 8 | 16:02.00 | 4:59.05 | 72150 | 94579 9 | 21:01.05 | 3:11.30 | 94580 | 108934 10 | 24:12.35 | 6:26.02 | 108935 | 137886 11 | 30:38.37 | 3:00.70 | 137887 | 151456 12 | 33:39.32 | 2:38.50 | 151457 | 163356 13 | 36:18.07 | 3:29.20 | 163357 | 179051 14 | 39:47.27 | 3:50.00 | 179052 | 196301 15 | 43:37.27 | 1:40.65 | 196302 | 203866 16 | 45:18.17 | 0:48.20 | 203867 | 207486 17 | 46:06.37 | 1:26.25 | 207487 | 213961
Range status and errors
Selected range
Filename C:\iso\Gomez,RLPO,Handley - Songs of the Auvergne\Gomez,RLPO,Handley - Songs of the Auvergne.wav
Peak level 99.4 % Extraction speed 7.0 X Range quality 100.0 % Test CRC 6FBC98D3 Copy CRC 6FBC98D3 Copy OK
No errors occurred
AccurateRip summary
Track 1 cannot be verified as accurate (confidence 14) [69ADA737], AccurateRip returned [9E51BA84] (AR v2)Track 2 accurately ripped (confidence 2) [6E3DE02B] (AR v1)Track 3 accurately ripped (confidence 2) [2635E4EA] (AR v1)Track 4 accurately ripped (confidence 2) [618264CA] (AR v1)Track 5 accurately ripped (confidence 2) [4BCC0C94] (AR v1)Track 6 accurately ripped (confidence 2) [ECDECD93] (AR v1)Track 7 accurately ripped (confidence 2) [50F505AC] (AR v1)Track 8 accurately ripped (confidence 2) [5C8FC257] (AR v1)Track 9 accurately ripped (confidence 2) [B17ED379] (AR v1)Track 10 accurately ripped (confidence 2) [703D45DD] (AR v1)Track 11 accurately ripped (confidence 2) [3CF7EB65] (AR v1)Track 12 accurately ripped (confidence 2) [A9C374AD] (AR v1)Track 13 accurately ripped (confidence 2) [F21ECE17] (AR v1)Track 14 accurately ripped (confidence 2) [AE54B2E7] (AR v1)Track 15 accurately ripped (confidence 2) [ECFF2674] (AR v1)Track 16 accurately ripped (confidence 2) [B7BE8767] (AR v1)Track 17 accurately ripped (confidence 2) [71676397] (AR v1)
16 track(s) accurately ripped 1 track(s) could not be verified as accurate
Some tracks could not be verified as accurate
End of status report
==== Log checksum 514FC0A601C97E8EB6EA247EB688E30D89279B61628D67A15280B8E8BB94AC9A ====

Содержание индексной карты (.CUE)

REM GENRE "Classical"REM DATE 1985REM DISCID E10B2411REM COMMENT "ExactAudioCopy v1.0b3"CATALOG 0724357256827PERFORMER "Jill Gomez, Royal Liverpool Philarmonic Orchestra, Vernon Handley"TITLE "Joseph Canteloube, Songs of the Auvergne"FILE "Jill Gomez, Royal Liverpool Philarmonic Orchestra, Vernon Handley - 1985 - Joseph Canteloube, Songs of the Auvergne (EMI 7243 5 72568 2 7) [NL+].wv" WAVE TRACK 01 AUDIO TITLE "L'aio de rotso (Spring Water)" PERFORMER "Jill Gomez, Royal Liverpool Philarmonic Orchestra, Vernon Handley" INDEX 00 00:00:00 INDEX 01 00:00:32 TRACK 02 AUDIO TITLE "Ound' onoren gorda (Where Shall We Go & Graze?)" PERFORMER "Jill Gomez, Royal Liverpool Philarmonic Orchestra, Vernon Handley" INDEX 00 01:11:07 INDEX 01 01:11:10 TRACK 03 AUDIO TITLE "Obal din lou Limouzi (Down there in Limousin)" PERFORMER "Jill Gomez, Royal Liverpool Philarmonic Orchestra, Vernon Handley" INDEX 00 04:13:72 INDEX 01 04:14:00 TRACK 04 AUDIO TITLE "Jou l'pount d'o Mirabel (By Mirabel Bridge)" PERFORMER "Jill Gomez, Royal Liverpool Philarmonic Orchestra, Vernon Handley" INDEX 00 06:37:22 INDEX 01 06:40:27 TRACK 05 AUDIO TITLE "Chut, Chut (Hush, hush)" PERFORMER "Jill Gomez, Royal Liverpool Philarmonic Orchestra, Vernon Handley" INDEX 00 10:18:45 INDEX 01 10:22:00 TRACK 06 AUDIO TITLE "Lou Boussu (The Hunchback)" PERFORMER "Jill Gomez, Royal Liverpool Philarmonic Orchestra, Vernon Handley" INDEX 00 12:18:32 INDEX 01 12:21:17 TRACK 07 AUDIO TITLE "Pastouro, se tu m'aymo (Shepherd Lass, if you love me)" PERFORMER "Jill Gomez, Royal Liverpool Philarmonic Orchestra, Vernon Handley" INDEX 00 14:30:65 INDEX 01 14:33:72 TRACK 08 AUDIO TITLE "La delaissado (The Forsaken Girl)" PERFORMER "Jill Gomez, Royal Liverpool Philarmonic Orchestra, Vernon Handley" INDEX 00 15:58:52 INDEX 01 16:02:00 TRACK 09 AUDIO TITLE "L'Antoueno (Anthony)" PERFORMER "Jill Gomez, Royal Liverpool Philarmonic Orchestra, Vernon Handley" INDEX 00 20:58:15 INDEX 01 21:01:05 TRACK 10 AUDIO TITLE "Bailero (Bailero)" PERFORMER "Jill Gomez, Royal Liverpool Philarmonic Orchestra, Vernon Handley" INDEX 00 24:09:07 INDEX 01 24:12:35 TRACK 11 AUDIO TITLE "Passo pel prat (Come through the meadow)" PERFORMER "Jill Gomez, Royal Liverpool Philarmonic Orchestra, Vernon Handley" INDEX 00 30:35:55 INDEX 01 30:38:37 TRACK 12 AUDIO TITLE "Lo fiolaire (The Spinning Girl)" PERFORMER "Jill Gomez, Royal Liverpool Philarmonic Orchestra, Vernon Handley" INDEX 00 33:35:47 INDEX 01 33:39:32 TRACK 13 AUDIO TITLE "Brezaiola (Cradle Song)" PERFORMER "Jill Gomez, Royal Liverpool Philarmonic Orchestra, Vernon Handley" INDEX 00 36:14:50 INDEX 01 36:18:07 TRACK 14 AUDIO TITLE "Pastourelle (Shepherd Lass)" PERFORMER "Jill Gomez, Royal Liverpool Philarmonic Orchestra, Vernon Handley" INDEX 00 39:44:27 INDEX 01 39:47:27 TRACK 15 AUDIO TITLE "Lou coucut (The Cuckoo)" PERFORMER "Jill Gomez, Royal Liverpool Philarmonic Orchestra, Vernon Handley" INDEX 00 43:33:57 INDEX 01 43:37:27 TRACK 16 AUDIO TITLE "Te, l'co, te! (Go on, dog!)" PERFORMER "Jill Gomez, Royal Liverpool Philarmonic Orchestra, Vernon Handley" INDEX 00 45:14:57 INDEX 01 45:18:17 TRACK 17 AUDIO TITLE "Malurous qu'o uno fenno (Unhappy he who has a wife)" PERFORMER "Jill Gomez, Royal Liverpool Philarmonic Orchestra, Vernon Handley" INDEX 00 46:02:72 INDEX 01 46:06:37

Лог проверки качества

Скриншот спектра частот




Показать сообщения:    

Текущее время: 10-Дек 08:05

Часовой пояс: UTC + 3


Вы не можете начинать темы
Вы не можете отвечать на сообщения
Вы не можете редактировать свои сообщения
Вы не можете удалять свои сообщения
Вы не можете голосовать в опросах
Вы не можете прикреплять файлы к сообщениям
Вы не можете скачивать файлы