(Choral / Vocal Music) Pastyme with Good Companye - Tudor Music from Hampton Court Palace / I Fagiolini; The Forbury Consort - 1992, APE (image+.cue) lossless


 

[Цитировать]

Pastyme with Good Companye - Tudor Music from Hampton Court Palace / I Fagiolini
Жанр: Choral / Vocal Music
Страна-производитель диска: England
Год издания диска: 1992
Издатель (лейбл): Cantoris Records
Номер по каталогу: CRCD2365
Дата записи: June 1992
Аудиокодек: APE
Тип рипа: image+.cue
Битрейт аудио: lossless
Продолжительность: 61:57
Источник: собственный рип
Наличие сканов в содержимом раздачи: нет
Треклист:
1. Pastyme with Good Companye
2. Madame d'amours
3. Dont vient cela
4. And I war a maydyn
5. A robyn, gentyl robyn
6. Danse de Cleves
7. Trolly lolly
8. Je fille quant Dieu
9. Un jeune moyne
10. Departure is my chief payne
11. Grene growith the holy
12. Je despite tous
13. De vous servir
14. Angelus ad Virginem
15. Fortuna desperata
16. Padoana
17. Englond be glad
18. En vray amoure
19. Greensleeves
20. Une nonnain refaite
21. Hey troly loly lo
22. Bassa Danza 'Alta'
23. Gentil Princep
24. De tous bien plane
25. Galliarde Ferrareze
26. Helas Madam
27. Instrumental consort
28. Hoyda jolly rutterkin
Исполнители:
I Fagiolini
Peter Gritton - countertenor
Hugh Wilson - tenor
John Bowen - tenor, percussion
Roderick Williams - baritone
Robert Hollingworth - director, countertenor, percussion, harp, treble recorder
Steven Player - lute, renaissance guitar and percussion
The Forbury Consort
Jane Watkins - recorders, crumhorn
Rhiannon Thomas - recorders, crumhorn, viol
Karen Morgan - recorders
Kate Green - recorders, percussion
Alan Crumpler - director, recorders, crumhorn, percussion, viol

Лог создания рипа

Exact Audio Copy V0.99 prebeta 5 from 4. May 2009
Звіт EAC про видобування, котре виконане 5. квітня 2013, 23:47
I Fagiolini & The Forbury Consort / Pastyme with Good Companye
Дисковод: SONY DVD RW DRU-190A Adapter: 0 ID: 0
Режим читання : ТочнийВикористати точний потік : ТакВимкнути аудіо кеш : ТакЗастосувати мітки C2 : Ні
Корекція зміщення при читанні : 6Екстрачитання областей Lead-in і Lead-out : НіЗаповнення пропущених семплів тишею : ТакВидалення блоків з тишею на початку і кінці : НіПри вирахуванні CRC використовувались нульові семпли : ТакВикористаний інтерфейс : Встановлений зовнішній ASPI-інтерфейс
Застосований вихідний формат : Кодер Monkey's Audio LosslessОбраний бітрейт : High Lossless CompressionЯкість : ВисокийДодати тег ID3 : ТакКомпресор командного рядка : D:\Program Files\Monkey's Audio\MAC.exeДодаткові параметри командного рядка : %source% %dest% -c3000
TOC видобутого CD
Трек | Старт | Довжина | Початковий сектор | Кінцевий сектор ------------------------------------------------------------------ 1 | 0:00.00 | 1:35.15 | 0 | 7139 2 | 1:35.15 | 2:20.67 | 7140 | 17706 3 | 3:56.07 | 1:10.35 | 17707 | 22991 4 | 5:06.42 | 1:48.43 | 22992 | 31134 5 | 6:55.10 | 2:05.02 | 31135 | 40511 6 | 9:00.12 | 2:07.00 | 40512 | 50036 7 | 11:07.12 | 1:19.50 | 50037 | 56011 8 | 12:26.62 | 1:10.63 | 56012 | 61324 9 | 13:37.50 | 2:33.35 | 61325 | 72834 10 | 16:11.10 | 2:13.02 | 72835 | 82811 11 | 18:24.12 | 2:21.35 | 82812 | 93421 12 | 20:45.47 | 1:25.73 | 93422 | 99869 13 | 22:11.45 | 1:54.42 | 99870 | 108461 14 | 24:06.12 | 1:59.33 | 108462 | 117419 15 | 26:05.45 | 3:48.72 | 117420 | 134591 16 | 29:54.42 | 2:31.38 | 134592 | 145954 17 | 32:26.05 | 1:40.07 | 145955 | 153461 18 | 34:06.12 | 1:50.05 | 153462 | 161716 19 | 35:56.17 | 2:38.30 | 161717 | 173596 20 | 38:34.47 | 2:12.10 | 173597 | 183506 21 | 40:46.57 | 3:48.30 | 183507 | 200636 22 | 44:35.12 | 2:22.35 | 200637 | 211321 23 | 46:57.47 | 1:36.68 | 211322 | 218589 24 | 48:34.40 | 5:12.05 | 218590 | 241994 25 | 53:46.45 | 2:14.37 | 241995 | 252081 26 | 56:01.07 | 1:32.08 | 252082 | 258989 27 | 57:33.15 | 1:02.67 | 258990 | 263706 28 | 58:36.07 | 3:19.23 | 263707 | 278654
Статус діапазону і помилки
Обраний діапазон
Ім'я файлу L:\I Fagiolini - Pastyme with Good Companye\I Fagiolini & The Forbury Consort - Pastyme with Good Companye.wav
Піковий рівень 99.7 % Якість діапазону 99.9 % CRC тесту 3E400AE8 CRC копії 3E400AE8 Копіювання... OK
Помилки не траплялися
Звіт Точного Видобування
Трек 1 точно видобуто (впевненість 1) [7B6A090E]Трек 2 точно видобуто (впевненість 1) [3B9E4587]Трек 3 точно видобуто (впевненість 1) [702C144B]Трек 4 точно видобуто (впевненість 1) [D08CD38A]Трек 5 точно видобуто (впевненість 1) [1EB1CD79]Трек 6 точно видобуто (впевненість 1) [1174A45F]Трек 7 точно видобуто (впевненість 1) [F262A53B]Трек 8 точно видобуто (впевненість 1) [06AD4247]Трек 9 точно видобуто (впевненість 1) [B39C3A58]Трек 10 точно видобуто (впевненість 1) [157C1EF9]Трек 11 точно видобуто (впевненість 1) [90C4D2E7]Трек 12 точно видобуто (впевненість 1) [597C6B5E]Трек 13 точно видобуто (впевненість 1) [532FD7A7]Трек 14 точно видобуто (впевненість 1) [AC407FCD]Трек 15 точно видобуто (впевненість 1) [6A106215]Трек 16 точно видобуто (впевненість 1) [2FD02C44]Трек 17 точно видобуто (впевненість 1) [BAFF6126]Трек 18 точно видобуто (впевненість 1) [6A4135E2]Трек 19 точно видобуто (впевненість 1) [6B731746]Трек 20 точно видобуто (впевненість 1) [63D143B6]Трек 21 точно видобуто (впевненість 1) [030AA708]Трек 22 точно видобуто (впевненість 1) [BA39646A]Трек 23 точно видобуто (впевненість 1) [01C6C288]Трек 24 точно видобуто (впевненість 1) [85206E4B]Трек 25 точно видобуто (впевненість 1) [1D51B786]Трек 26 точно видобуто (впевненість 1) [139E3327]Трек 27 точно видобуто (впевненість 1) [DE6C3645]Трек 28 точно видобуто (впевненість 1) [F0AFFED7]
Всі треки видобуті точно
Кінець звіту



Показать сообщения:    

Текущее время: 05-Дек 15:31

Часовой пояс: UTC + 3


Вы не можете начинать темы
Вы не можете отвечать на сообщения
Вы не можете редактировать свои сообщения
Вы не можете удалять свои сообщения
Вы не можете голосовать в опросах
Вы не можете прикреплять файлы к сообщениям
Вы не можете скачивать файлы