(Opera, Vocal) Александр Пирогов. Сцены и арии из опер (Rossini, Verdi, Римский-Корсаков, Рахманинов, Юрасовский, Даргомыжский, Мусоргский) - 2007, APE (image+.cue) lossless


 

[Цитировать]

Alexander Pirogov. Opera Scenes And Arias / Александр Пирогов. Сцены И Арии Из Опер
Жанр: Opera, Vocal
Страна-производитель диска: Россия
Год издания диска: 2007
Издатель (лейбл): Aquarius
Номер по каталогу: AQR 316-2
Дата записи: 1940е-1954
Аудиокодек: APE
Тип рипа: image+.cue
Битрейт аудио: lossless
Продолжительность: 77:39
Источник: собственный рип
Наличие сканов в содержимом раздачи: нет

Треклист

01. Ария Дона Базилио (Дж. Россини «Севильский цирюльник», 2 д.) 5.10
02. Ария Филиппа (Дж. Верди «Дон-Карлос», 3 д.) 10.26
03. Песня Варяжского гостя (Н. Римский-Корсаков «Садко», 4 картина) 3.12
04. Каватина Алеко (С. Рахманинов «Алеко») 7.14
05. Ариозо Ланчотто (С. Рахманинов «Франческа да Римини») 3.28
06. Монолог Свенгали (А. Юрасовский «Трильби», 2 д.) 6.46
07. Сцена Мельника и Князя (А. Даргомыжский «Русалка», 3 д., Князь - П. Чекин) 12.34
Сцена в тереме (М. Мусоргский «Борис Годунов», 2 д.)
Запись по трансляции со сцены Большого театра 27 ноября 1954 г.
08. Сцена (Ксения, мамка Ксении, Феодор, Борис) 9.39
09. Монолог Бориса 6.04
10. Сцена Бориса и Шуйского 8.51
11. Сцена Бориса 4.15
Исполнители:
А. Пирогов (1-11).
Борис Годунов - А. Пирогов, Шуйский - Н. Ханаев, Феодор - В. Гагарина, Ксения - Е. Кругликова,
мамка Ксении - Е. Вербицкая, ближний боярин - Ф. Годовкин (8-11)
Оркестр Большого театра (1-3, 8-11), Большой симфонический оркестр (4, 5)
Дирижеры: В. Небольсин (1,3), А. Орлов (2, 6), Н. Голованов (4), С. Самосуд (5), А. Чугунов (7), А. Мелик-Пашаев (8-11).
Год записи: первая половина 1940-х (7), 1946 (6), 11 апреля 1947 (2), 26 июня 1951 (5), 1952 (4),
14 декабря 1953 (1,3)

Лог создания рипа

Exact Audio Copy V0.99 prebeta 5 from 4. May 2009
Отчёт EAC об извлечении, выполненном 22. июля 2013, 17:03
Unknown Artist / Unknown Title
Дисковод: Optiarc DVD RW AD-7240S Adapter: 2 ID: 0
Режим чтения : ДостоверностьИспользование точного потока : ДаОтключение кэша аудио : ДаИспользование указателей C2 : Нет
Коррекция смещения при чтении : 48Способность читать области Lead-in и Lead-out : НетЗаполнение пропущенных сэмплов тишиной : ДаУдаление блоков с тишиной в начале и конце : НетПри вычислениях CRC использовались нулевые сэмплы : ДаИнтерфейс : Установленный внешний ASPI-интерфейс
Выходной формат : Внутренние WAV-операцииФормат сэмплов : 44.100 Гц; 16 бит; стерео
TOC извлечённого CD
Трек | Старт | Длительность | Начальный сектор | Конечный сектор --------------------------------------------------------------------- 1 | 0:00.00 | 5:14.30 | 0 | 23579 2 | 5:14.30 | 10:30.06 | 23580 | 70835 3 | 15:44.36 | 3:16.35 | 70836 | 85570 4 | 19:00.71 | 7:18.18 | 85571 | 118438 5 | 26:19.14 | 3:32.07 | 118439 | 134345 6 | 29:51.21 | 6:50.08 | 134346 | 165103 7 | 36:41.29 | 12:42.05 | 165104 | 222258 8 | 49:23.34 | 9:39.27 | 222259 | 265710 9 | 59:02.61 | 6:04.47 | 265711 | 293057 10 | 65:07.33 | 8:51.28 | 293058 | 332910 11 | 73:58.61 | 4:14.60 | 332911 | 352020
Характеристики диапазона извлечения и сообщения об ошибках
Выбранный диапазон
Имя файла E:\Alexander Pirogov\Alexander Pirogov. Opera Scenes And Arias.wav
Пиковый уровень 99.4 % Качество диапазона 100.0 % CRC копии D3C374F7 Копирование... OK
Ошибок не произошло
AccurateRip: сводка
Трек 1 точное извлечение (доверие 1) [1CA8719B]Трек 2 точное извлечение (доверие 1) [A3EC3584]Трек 3 точное извлечение (доверие 1) [B1EF77F2]Трек 4 точное извлечение (доверие 1) [E549A271]Трек 5 точное извлечение (доверие 1) [921B6D30]Трек 6 точное извлечение (доверие 1) [EE6FFA7B]Трек 7 точное извлечение (доверие 1) [8D3490F0]Трек 8 точное извлечение (доверие 1) [5F793A3F]Трек 9 точное извлечение (доверие 1) [7AEFB02D]Трек 10 точное извлечение (доверие 1) [34339B97]Трек 11 точное извлечение (доверие 1) [DD03AAD7]
Все треки извлечены точно
Конец отчёта

Прописанный Que

REM DISCID 9812550B
REM COMMENT "ExactAudioCopy v0.99pb5"
PERFORMER "Александр Пирогов"
TITLE "Сцены и арии из опер"
FILE "Alexander Pirogov. Opera Scenes And Arias.ape" WAVE
TRACK 01 AUDIO
TITLE "Ария Дона Базилио (Россини 'Севильский цирюльник')"
PERFORMER "Александр Пирогов"
INDEX 01 00:00:00
TRACK 02 AUDIO
TITLE "Ария Филиппа (Верди 'Дон-Карлос')"
PERFORMER "Александр Пирогов"
INDEX 00 05:10:30
INDEX 01 05:14:30
TRACK 03 AUDIO
TITLE "Песня Варяжского гостя (Римский-Корсаков 'Садко')"
PERFORMER "Александр Пирогов"
INDEX 00 15:40:36
INDEX 01 15:44:36
TRACK 04 AUDIO
TITLE "Каватина Алеко (Рахманинов 'Алеко')"
PERFORMER "Александр Пирогов"
INDEX 00 18:56:72
INDEX 01 19:00:71
TRACK 05 AUDIO
TITLE "Ариозо Ланчотто (Рахманинов 'Франческа да Римини')"
PERFORMER "Александр Пирогов"
INDEX 00 26:15:14
INDEX 01 26:19:14
TRACK 06 AUDIO
TITLE "Монолог Свенгали (Юрасовский 'Трильби')"
PERFORMER "Александр Пирогов"
INDEX 00 29:47:21
INDEX 01 29:51:21
TRACK 07 AUDIO
TITLE "Сцена Мельника и Князя (Даргомыжский 'Русалка')"
PERFORMER "Александр Пирогов"
INDEX 00 36:37:29
INDEX 01 36:41:29
TRACK 08 AUDIO
TITLE "Сцена (Мусоргский 'Борис Годунов', 2 д.)"
PERFORMER "Александр Пирогов"
INDEX 00 49:15:34
INDEX 01 49:23:34
TRACK 09 AUDIO
TITLE "Монолог Бориса (Мусоргский 'Борис Годунов', 2 д.)"
PERFORMER "Александр Пирогов"
INDEX 01 59:02:61
TRACK 10 AUDIO
TITLE "Сцена Бориса и Шуйского (Мусоргский 'Борис Годунов', 2 д.)"
PERFORMER "Александр Пирогов"
INDEX 01 65:07:33
TRACK 11 AUDIO
TITLE "Сцена Бориса (Мусоргский 'Борис Годунов', 2 д.)"
PERFORMER "Александр Пирогов"
INDEX 01 73:58:61

Доп. информация

Основу настоящего диска составляют редкие оперные записи А.С. Пирогова, в большинстве своем ранее не публиковавшиеся. Среди них хотелось бы выделить арию Дон-Базилио и песню Варяжского гостя в записи 1953 г. (дир. В. Небольсин). Также впервые публикуется уникальная запись арии короля Филиппа. Неизгладимое впечатление производит в исполнении Пирогова монолог Свенгали из оперы А. Юрасовского «Трильби». Впоследствии эта сцена была снята с участием А.С. Пирогова на телевидении.
Одно из гениальных созданий Пирогова - образ Мельника в опере А. Даргомыжского «Русалка» - известно главным образом по прекрасной полной записи этой оперы. Фрагменты из нее неоднократно переиздавались на сольных дисках певца. Однако сцена Мельника и Князя в исполнении Пирогова была записана еще как минимум 3 раза: на тонфильм (с Павлом Чекиным), на пластинки (с Сергеем Стрельцовым) и на телевидении (с Андреем Соколовым). Наиболее редкая из этих записей (сделанная на тонфильм) включена в настоящее издание.
Завершает альбом уникальная запись фрагмента юбилейного вечера А.С. Пирогова, состоявшегося 27 ноября 1954 г. на сцене Большого театра в честь 35-летия творческой деятельности артиста и 30-летия его служения в Большом театре. В тот вечер с участием Пирогова были исполнены сцены из оперы «Борис Годунов». Публикуемая целиком сцена в тереме дает редчайшую возможность услышать «живое» исполнение великим трагиком русской оперы своего бессмертного образа.
Максим Никифоров



Показать сообщения:    

Текущее время: 07-Дек 00:49

Часовой пояс: UTC + 3


Вы не можете начинать темы
Вы не можете отвечать на сообщения
Вы не можете редактировать свои сообщения
Вы не можете удалять свои сообщения
Вы не можете голосовать в опросах
Вы не можете прикреплять файлы к сообщениям
Вы не можете скачивать файлы