(Classical, 20th century) Luciano Berio - Laborintus II - Mike Patton, Nederlands Kamerkoor, Ictus Ensemble - 2012, FLAC (image+.cue) lossless


 

[Цитировать]

Luciano Berio - Laborintus II - Mike Patton, Nederlands Kamerkoor, Ictus Ensemble
Жанр: Classical, 20th century
Год издания диска: 2012
Издатель (лейбл): Ipecac Recordings
Дата записи: 2010
Аудиокодек: FLAC
Тип рипа: image+.cue
Битрейт аудио: lossless
Продолжительность: 32:11
Источник: собственный рип
Наличие сканов в содержимом раздачи: да
Треклист:
Luciano Berio (1925-2003)
[1]-[3] Laborintus II
Исполнители:
Mike Patton narrator
Nederlands Kamerkoor
Ictus Ensemble

Лог создания рипа

Exact Audio Copy V1.0 beta 3 from 29. August 2011
EAC extraction logfile from 5. July 2013, 11:47
Mike Patton, Ictus Ensemble / Berio - Laborintus II
Used drive : HL-DT-STDVDRRW GWA-4164B Adapter: 5 ID: 0
Read mode : SecureUtilize accurate stream : YesDefeat audio cache : YesMake use of C2 pointers : No
Read offset correction : 102Overread into Lead-In and Lead-Out : NoFill up missing offset samples with silence : YesDelete leading and trailing silent blocks : NoNull samples used in CRC calculations : YesUsed interface : Native Win32 interface for Win NT & 2000
Used output format : User Defined EncoderSelected bitrate : 896 kBit/sQuality : HighAdd ID3 tag : NoCommand line compressor : C:\Program Files\Exact Audio Copy\FLAC\FLAC.EXEAdditional command line options : -V -8 %source%
TOC of the extracted CD
Track | Start | Length | Start sector | End sector --------------------------------------------------------- 1 | 0:00.00 | 11:38.20 | 0 | 52369 2 | 11:38.20 | 15:03.71 | 52370 | 120165 3 | 26:42.16 | 5:28.52 | 120166 | 144817
Range status and errors
Selected range
Filename D:\temp\Music\Berio - Laborintus II (Mike Patton, Ictus Ensemble)\Berio - Laborintus II.wav
Peak level 99.8 % Extraction speed 3.3 X Range quality 99.9 % Test CRC 9B921D3D Copy CRC 9B921D3D Copy OK
No errors occurred
AccurateRip summary
Track 1 accurately ripped (confidence 1) [B47D5E70] (AR v2)Track 2 accurately ripped (confidence 1) [3F2C1BC0] (AR v2)Track 3 accurately ripped (confidence 1) [CF326E7C] (AR v2)
All tracks accurately ripped
End of status report
==== Log checksum 6931A0E6CA8375597D02D48CA150A09411955CD8EF45EE0D1D1636AF7DAE14C9 ====



Показать сообщения:    

Текущее время: 05-Дек 05:28

Часовой пояс: UTC + 3


Вы не можете начинать темы
Вы не можете отвечать на сообщения
Вы не можете редактировать свои сообщения
Вы не можете удалять свои сообщения
Вы не можете голосовать в опросах
Вы не можете прикреплять файлы к сообщениям
Вы не можете скачивать файлы