(Classical, Baroque) Jan Dismas Zelenka - Solo Motets - Alex Potter, Capriccio Barockorchester, Dominik Kiefer - 2012, FLAC (image+.cue) lossless


 

[Цитировать]

Jan Dismas Zelenka - Solo Motets - Alex Potter, Capriccio Barockorchester, Dominik Kiefer
Жанр: Classical, Baroque
Страна-производитель диска: Austria
Год издания диска: 2012
Издатель (лейбл): Pan Classics
Номер по каталогу: PC 10274
Дата записи: 2012
Аудиокодек: FLAC
Тип рипа: image+.cue
Битрейт аудио: lossless
Продолжительность: 81:10
Источник: собственный рип
Наличие сканов в содержимом раздачи: да
Треклист:
Jan Dismas Zelenka (1679-1745)
[1] Barbara, dira effera! ZWV 164
[2] Alma Redemptoris Mater ZWV 126
[3] Hipocondrie ZWV 63
[4] Christe eleison in E minor ZWV 29
[5] Lamentation III/2 ZWV 53/6
[6] Sinfonia in C minor ZWV 63
[7] Dormi nate, dormi, Deus ZWV 171
[8] Sollicitus fossor ZWV 209
Исполнители:
Alex Potter countertenor
Capriccio Barockorchester
Dominik Kiefer
direction

Лог создания рипа

Exact Audio Copy V1.0 beta 3 from 29. August 2011
EAC extraction logfile from 19. June 2013, 13:08
Alex Potter, Capriccio Barockorchester / Zelenka - Solo motets
Used drive : HL-DT-STDVDRRW GWA-4164B Adapter: 5 ID: 0
Read mode : SecureUtilize accurate stream : YesDefeat audio cache : YesMake use of C2 pointers : No
Read offset correction : 102Overread into Lead-In and Lead-Out : NoFill up missing offset samples with silence : YesDelete leading and trailing silent blocks : NoNull samples used in CRC calculations : YesUsed interface : Native Win32 interface for Win NT & 2000
Used output format : User Defined EncoderSelected bitrate : 896 kBit/sQuality : HighAdd ID3 tag : NoCommand line compressor : C:\Program Files\Exact Audio Copy\FLAC\FLAC.EXEAdditional command line options : -V -8 %source%
TOC of the extracted CD
Track | Start | Length | Start sector | End sector --------------------------------------------------------- 1 | 0:00.00 | 17:44.71 | 0 | 79870 2 | 17:44.71 | 10:10.02 | 79871 | 125622 3 | 27:54.73 | 8:16.60 | 125623 | 162882 4 | 36:11.58 | 5:59.41 | 162883 | 189848 5 | 42:11.24 | 11:27.07 | 189849 | 241380 6 | 53:38.31 | 8:38.41 | 241381 | 280271 7 | 62:16.72 | 7:23.00 | 280272 | 313496 8 | 69:39.72 | 11:28.03 | 313497 | 365099
Range status and errors
Selected range
Filename D:\temp\Music\Zelenka - Solo motets\Zelenka - Solo motets.wav
Peak level 94.4 % Extraction speed 2.2 X Range quality 100.0 % Test CRC 09CCC001 Copy CRC 09CCC001 Copy OK
No errors occurred
AccurateRip summary
Track 1 not present in databaseTrack 2 not present in databaseTrack 3 not present in databaseTrack 4 not present in databaseTrack 5 not present in databaseTrack 6 not present in databaseTrack 7 not present in databaseTrack 8 not present in database
None of the tracks are present in the AccurateRip database
End of status report
==== Log checksum 8BA7802E28A88A30A81BF052BF512B043014E27D6360FDBE6CF51FA080D7F98B ====



Показать сообщения:    

Текущее время: 09-Дек 10:50

Часовой пояс: UTC + 3


Вы не можете начинать темы
Вы не можете отвечать на сообщения
Вы не можете редактировать свои сообщения
Вы не можете удалять свои сообщения
Вы не можете голосовать в опросах
Вы не можете прикреплять файлы к сообщениям
Вы не можете скачивать файлы