(Classical, Ars Subtilior) Corps Femenin - L'Avant-garde de Jean Duc de Berry: Rodericus, Senleches, Guido, Solage, Trebor, Magister Egidius - Ferrara Ensemble, Crawford Young - 2010, FLAC (image+.cue) lossless


 

[Цитировать]

Corps Femenin - L'Avant-garde de Jean Duc de Berry: Rodericus, Senleches, Guido, Solage, Trebor, Magister Egidius - Ferrara Ensemble, Crawford Young
Жанр: Classical, Ars Subtilior
Страна-производитель диска: Italy
Год издания диска: 2010
Издатель (лейбл): Arcana
Номер по каталогу: A 355
Дата записи: 2000,2008,2009
Аудиокодек: FLAC
Тип рипа: image+.cue
Битрейт аудио: lossless
Продолжительность: 67:46
Источник: собственный рип
Наличие сканов в содержимом раздачи: да
Треклист:
[1] Rodericus: Angelorum psalat tripudium
[2] Principio di virtu
[3] Senleches: Fuions de ci fuions povre compaigne
[4] Guido: Or voit tout en aventure
[5] Trebor: Passerose de beaute la noble flour
[6] Medee fu en amer veritable
[7] Senleches: Tel me voit et me regarde
[8] Trebor: Quant joyne cuer en may est amoureux
[9] Solage: Corps femenin par vertu de nature
[10] Solage: Calextone qui fut dame darouse
[11] Passerose flours excellente
[12] Magister Egidius Augustinus: Roses et lis ay veu en une flour
Герцог Jean de Berry (1340-1416) был собирателем всего прекрасного, экзотического и редкого. Изрядные суммы тратились герцогом на покупку музыкальных инструментов и найм музыкантов. За свое сравнительно долгое правление он мог наблюдать смену нескольких музыкальных стилей: Машо, Ars Subtilior, ранние полифонисты (до Дюфаи). Фокус этой программы -- Ars Subtilior. Произведения были написаны либо в связи со знаменательными событиями в жизни герцога, либо музыкантами, находившимися на его службе.
Исполнители:
Ferrara Ensemble
Crawford Young

Лог создания рипа

Exact Audio Copy V1.0 beta 3 from 29. August 2011
EAC extraction logfile from 28. May 2013, 15:37
Ferrara Ensemble / Corps femenin
Used drive : HL-DT-STDVDRRW GWA-4164B Adapter: 5 ID: 0
Read mode : SecureUtilize accurate stream : YesDefeat audio cache : YesMake use of C2 pointers : No
Read offset correction : 102Overread into Lead-In and Lead-Out : NoFill up missing offset samples with silence : YesDelete leading and trailing silent blocks : NoNull samples used in CRC calculations : YesUsed interface : Native Win32 interface for Win NT & 2000
Used output format : User Defined EncoderSelected bitrate : 896 kBit/sQuality : HighAdd ID3 tag : NoCommand line compressor : C:\Program Files\Exact Audio Copy\FLAC\FLAC.EXEAdditional command line options : -V -8 %source%
TOC of the extracted CD
Track | Start | Length | Start sector | End sector --------------------------------------------------------- 1 | 0:00.00 | 5:47.62 | 0 | 26086 2 | 5:47.62 | 6:42.45 | 26087 | 56281 3 | 12:30.32 | 9:12.42 | 56282 | 97723 4 | 21:42.74 | 2:38.61 | 97724 | 109634 5 | 24:21.60 | 9:37.08 | 109635 | 152917 6 | 33:58.68 | 6:16.17 | 152918 | 181134 7 | 40:15.10 | 3:45.03 | 181135 | 198012 8 | 44:00.13 | 8:05.16 | 198013 | 234403 9 | 52:05.29 | 3:03.24 | 234404 | 248152 10 | 55:08.53 | 3:24.50 | 248153 | 263502 11 | 58:33.28 | 0:52.71 | 263503 | 267473 12 | 59:26.24 | 8:03.29 | 267474 | 303727
Range status and errors
Selected range
Filename C:\temp\Corps femenin\Corps femenin.wav
Peak level 96.5 % Extraction speed 2.7 X Range quality 100.0 % Test CRC E1A0241F Copy CRC E1A0241F Copy OK
No errors occurred
End of status report
==== Log checksum D4820ABF8F827C300A0868A44A7518D76CEB611088F3469B6538EEED59F03FD4 ====



Показать сообщения:    

Текущее время: 20-Янв 15:01

Часовой пояс: UTC + 3


Вы не можете начинать темы
Вы не можете отвечать на сообщения
Вы не можете редактировать свои сообщения
Вы не можете удалять свои сообщения
Вы не можете голосовать в опросах
Вы не можете прикреплять файлы к сообщениям
Вы не можете скачивать файлы