(Soprano, 20th Century, Classical) Neva Pilgrim Sings Music of Ernst Krenek, Richard Wernick, Geroge Rochberg, R. Murray Schafer (Pilgrim, Contemporary Chamber Players of the University of Chicago, Wernick) - 1999, FLAC (tracks+.cue) lossless


 

[Цитировать]

Neva Pilgrim Sings Music of Ernst Krenek, Richard Wernick, Geroge Rochberg, R. Murray Schafer (Pilgrim, Contemporary Chamber Players of the University of Chicago, Wernick)
Жанр: Soprano, 20th Century, Classical
Страна-производитель диска: United States
Год издания диска: 1999
Издатель (лейбл): Composer's Recordings
Номер по каталогу: CD 817
Дата записи: 1969-1978
Аудиокодек: FLAC
Тип рипа: tracks+.cue
Битрейт аудио: lossless
Продолжительность: 1:17:37
Источник: собственный рип
сайт-источник/ник/другое: CD
Наличие сканов в содержимом раздачи: да
Треклист:
Ernst Křenek Three Verhaeren Songs, Op. 30a (9:56)
1. La Barque 3:23
2. Un Soir 2:34
3. L'Heure Mauvaise 3:59
------------------------
4. Richard Wernick Haiku Of Basho 10:45
George Rochberg Songs in Praise of Krishna (33:59)
5. 1. It Was In Bitter Maytime 4:21
6. 2. After Long Sorrow 2:05
7. 3. Her Slender Body 1:57
8. 4. As The Mirror 1:04
9. 5. O Madhava 3:00
10. 6. Lord Of My Heart 1:59
11. 7. I Brought Honey 1:37
12. 8. My Mind Is Not On Housework 2:28
13. 9. I Place Beauty Spots 1:05
14. 10. Shining One 1:24
15. 11. My Moon-Faced One 1:44
16. 12. Beloved, What More Shall I Say 3:25
17. 13. Let The Earth 1:17
18. 14. O My Friend 6:33
Ernst Křenek Zeit-Lieder, Op. 215 (7:47)
19. 1. Kennst Du Den Augenblick 4:57
20. 2. Hab Hande 2:50
-------------------------
21. R. Murray Schafer Requiem For The Party-Girl 15:10
Исполнители:
Neva Pilgrim, Sporano
William Nichols, Clarinet
The Madison Quartet
Contemporary Chamber Players of the University of Chicago
Richard Wernick, Conductor
George Rochberg, Piano
Jan Herlinger, Flute/piccolo
Stanley Davis, Clarinet/Bass
Paul Ondracek, Horn
Thomas Siwe, Percussion
Elizabeth Cifani, Harp
John Cobb, Piano
Elliot Golub, Violin
Arnold Sklar, Viola
Roger Malitz, Cello

Лог создания рипа

Exact Audio Copy V1.0 beta 3 from 29. August 2011
EAC extraction logfile from 11. June 2013, 22:51
Various Composers / Neva Pilgrim Sings Music of Ernst Křenek, Richard Wernick, Geroge Rochberg, R. Murray Schafer
Used drive : hp CDDVDW TS-L633N Adapter: 0 ID: 1
Read mode : SecureUtilize accurate stream : YesDefeat audio cache : YesMake use of C2 pointers : No
Read offset correction : 6Overread into Lead-In and Lead-Out : NoFill up missing offset samples with silence : YesDelete leading and trailing silent blocks : NoNull samples used in CRC calculations : YesUsed interface : Native Win32 interface for Win NT & 2000Gap handling : Appended to previous track
Used output format : User Defined EncoderSelected bitrate : 320 kBit/sQuality : HighAdd ID3 tag : YesCommand line compressor : C:\Program Files (x86)\FLAC\flac.exeAdditional command line options : -6 -V -T "ARTIST=%artist%" -T "TITLE=%title%" -T "ALBUM=%albumtitle%" -T "TRACKNUMBER=%tracknr%" %source% -o %dest%
TOC of the extracted CD
Track | Start | Length | Start sector | End sector --------------------------------------------------------- 1 | 0:00.00 | 3:22.50 | 0 | 15199 2 | 3:22.50 | 2:34.15 | 15200 | 26764 3 | 5:56.65 | 3:59.20 | 26765 | 44709 4 | 9:56.10 | 10:44.62 | 44710 | 93071 5 | 20:40.72 | 4:20.38 | 93072 | 112609 6 | 25:01.35 | 2:04.45 | 112610 | 121954 7 | 27:06.05 | 1:56.62 | 121955 | 130716 8 | 29:02.67 | 1:03.68 | 130717 | 135509 9 | 30:06.60 | 2:59.70 | 135510 | 149004 10 | 33:06.55 | 1:59.10 | 149005 | 157939 11 | 35:05.65 | 1:37.17 | 157940 | 165231 12 | 36:43.07 | 2:27.58 | 165232 | 176314 13 | 39:10.65 | 1:04.62 | 176315 | 181176 14 | 40:15.52 | 1:24.05 | 181177 | 187481 15 | 41:39.57 | 1:44.25 | 187482 | 195306 16 | 43:24.07 | 3:25.28 | 195307 | 210709 17 | 46:49.35 | 1:17.02 | 210710 | 216486 18 | 48:06.37 | 6:33.10 | 216487 | 245971 19 | 54:39.47 | 4:56.53 | 245972 | 268224 20 | 59:36.25 | 2:49.70 | 268225 | 280969 21 | 62:26.20 | 15:10.15 | 280970 | 349234
Track 1
Filename C:\Torrents\Neva Pilgrim Sings\01-Ernst Křenek-Three Verhaeren Songs, Op. 30a, La Barque.wav
Pre-gap length 0:00:02.00
Peak level 60.5 % Extraction speed 1.2 X Track quality 100.0 % Test CRC FE0CAE6F Copy CRC FE0CAE6F Accurately ripped (confidence 1) [6722B9EC] (AR v1) Copy OK
Track 2
Filename C:\Torrents\Neva Pilgrim Sings\02-Ernst Křenek-Three Verhaeren Songs, Op. 30a, Un Soir.wav
Peak level 52.6 % Extraction speed 1.2 X Track quality 100.0 % Test CRC 252E17EE Copy CRC 252E17EE Accurately ripped (confidence 1) [BD5CDAA5] (AR v1) Copy OK
Track 3
Filename C:\Torrents\Neva Pilgrim Sings\03-Ernst Křenek-Three Verhaeren Songs, Op. 30a, L'Heure Mauvaise.wav
Peak level 69.1 % Extraction speed 1.4 X Track quality 100.0 % Test CRC 7EAD04DA Copy CRC 7EAD04DA Accurately ripped (confidence 1) [E022FB1C] (AR v1) Copy OK
Track 4
Filename C:\Torrents\Neva Pilgrim Sings\04-Richard Wernick-Haiku Of Basho.wav
Pre-gap length 0:00:01.73
Peak level 100.0 % Extraction speed 1.8 X Track quality 100.0 % Test CRC 224F88F7 Copy CRC 224F88F7 Accurately ripped (confidence 1) [EF434E0F] (AR v1) Copy OK
Track 5
Filename C:\Torrents\Neva Pilgrim Sings\05-George Rochberg-Songs in Praise of Krishna, 1. It Was In Bitter Maytime.wav
Pre-gap length 0:00:06.67
Peak level 85.7 % Extraction speed 1.8 X Track quality 100.0 % Test CRC C2CCB46B Copy CRC C2CCB46B Accurately ripped (confidence 1) [8B3DA0FA] (AR v1) Copy OK
Track 6
Filename C:\Torrents\Neva Pilgrim Sings\06-George Rochberg-Songs in Praise of Krishna, 2. After Long Sorrow.wav
Peak level 100.0 % Extraction speed 1.7 X Track quality 100.0 % Test CRC 9818C025 Copy CRC 9818C025 Accurately ripped (confidence 1) [8B951024] (AR v1) Copy OK
Track 7
Filename C:\Torrents\Neva Pilgrim Sings\07-George Rochberg-Songs in Praise of Krishna, 3. Her Slender Body.wav
Peak level 100.0 % Extraction speed 1.3 X Track quality 99.9 % Test CRC 770A2538 Copy CRC 770A2538 Accurately ripped (confidence 1) [401C1596] (AR v1) Copy OK
Track 8
Filename C:\Torrents\Neva Pilgrim Sings\08-George Rochberg-Songs in Praise of Krishna, 4. As The Mirror.wav
Peak level 100.0 % Extraction speed 1.4 X Track quality 100.0 % Test CRC F40AF53F Copy CRC F40AF53F Accurately ripped (confidence 1) [B88AA0A4] (AR v1) Copy OK
Track 9
Filename C:\Torrents\Neva Pilgrim Sings\09-George Rochberg-Songs in Praise of Krishna, 5. O Madhava.wav
Peak level 86.5 % Extraction speed 1.6 X Track quality 99.9 % Test CRC 64E8D4A1 Copy CRC 64E8D4A1 Accurately ripped (confidence 1) [FDF79CAF] (AR v1) Copy OK
Track 10
Filename C:\Torrents\Neva Pilgrim Sings\10-George Rochberg-Songs in Praise of Krishna, 6. Lord Of My Heart.wav
Peak level 73.6 % Extraction speed 1.8 X Track quality 100.0 % Test CRC 3A807BEF Copy CRC 3A807BEF Accurately ripped (confidence 1) [6C418EFB] (AR v1) Copy OK
Track 11
Filename C:\Torrents\Neva Pilgrim Sings\11-George Rochberg-Songs in Praise of Krishna, 7. I Brought Honey.wav
Peak level 85.9 % Extraction speed 1.7 X Track quality 100.0 % Test CRC 2B9544D5 Copy CRC 2B9544D5 Accurately ripped (confidence 1) [6AB0DAD6] (AR v1) Copy OK
Track 12
Filename C:\Torrents\Neva Pilgrim Sings\12-George Rochberg-Songs in Praise of Krishna, 8. My Mind Is Not On Housework.wav
Peak level 78.4 % Extraction speed 1.9 X Track quality 100.0 % Test CRC F8047CB6 Copy CRC F8047CB6 Accurately ripped (confidence 1) [C41D94A9] (AR v1) Copy OK
Track 13
Filename C:\Torrents\Neva Pilgrim Sings\13-George Rochberg-Songs in Praise of Krishna, 9. I Place Beauty Spots.wav
Peak level 75.6 % Extraction speed 1.5 X Track quality 100.0 % Test CRC 31E8F9CE Copy CRC 31E8F9CE Accurately ripped (confidence 1) [81498D7C] (AR v1) Copy OK
Track 14
Filename C:\Torrents\Neva Pilgrim Sings\14-George Rochberg-Songs in Praise of Krishna, 10. Shining One.wav
Peak level 66.3 % Extraction speed 1.7 X Track quality 100.0 % Test CRC 2DE95D3F Copy CRC 2DE95D3F Accurately ripped (confidence 1) [99D93825] (AR v1) Copy OK
Track 15
Filename C:\Torrents\Neva Pilgrim Sings\15-George Rochberg-Songs in Praise of Krishna, 11. My Moon-Faced One.wav
Peak level 57.8 % Extraction speed 1.8 X Track quality 100.0 % Test CRC E4A45B7A Copy CRC E4A45B7A Accurately ripped (confidence 1) [0A967FD6] (AR v1) Copy OK
Track 16
Filename C:\Torrents\Neva Pilgrim Sings\16-George Rochberg-Songs in Praise of Krishna, 12. Beloved, What More Shall I Say.wav
Peak level 83.9 % Extraction speed 2.2 X Track quality 100.0 % Test CRC 4555D15A Copy CRC 4555D15A Accurately ripped (confidence 1) [540AE18E] (AR v1) Copy OK
Track 17
Filename C:\Torrents\Neva Pilgrim Sings\17-George Rochberg-Songs in Praise of Krishna, 13. Let The Earth.wav
Peak level 84.4 % Extraction speed 1.3 X Track quality 99.8 % Test CRC 1104057A Copy CRC 1104057A Accurately ripped (confidence 1) [A271FCF9] (AR v1) Copy OK
Track 18
Filename C:\Torrents\Neva Pilgrim Sings\18-George Rochberg-Songs in Praise of Krishna, 14. O My Friend.wav
Peak level 83.9 % Extraction speed 2.5 X Track quality 100.0 % Test CRC 4855DF93 Copy CRC 4855DF93 Accurately ripped (confidence 1) [9633522F] (AR v1) Copy OK
Track 19
Filename C:\Torrents\Neva Pilgrim Sings\19-Ernst Křenek-Zeit-Lieder, Op. 215, 1. Kennst Du Den Augenblick.wav
Pre-gap length 0:00:07.42
Peak level 78.2 % Extraction speed 2.5 X Track quality 100.0 % Test CRC 13C6A031 Copy CRC 13C6A031 Accurately ripped (confidence 1) [48A1A778] (AR v1) Copy OK
Track 20
Filename C:\Torrents\Neva Pilgrim Sings\20-Ernst Křenek-Zeit-Lieder, Op. 215, 2. Hab Hande.wav
Peak level 78.8 % Extraction speed 2.3 X Track quality 100.0 % Test CRC 29EA9568 Copy CRC 29EA9568 Accurately ripped (confidence 1) [A3CC5C07] (AR v1) Copy OK
Track 21
Filename C:\Torrents\Neva Pilgrim Sings\21-R. Murray Schafer-Requiem For The Party-Girl.wav
Pre-gap length 0:00:02.55
Peak level 100.0 % Extraction speed 2.9 X Track quality 100.0 % Test CRC 062E3205 Copy CRC 062E3205 Accurately ripped (confidence 1) [EE9E4F6A] (AR v1) Copy OK
All tracks accurately ripped
No errors occurred
End of status report
==== Log checksum 9CB3F391FF076FC8E7975BCC8980A027EAB2FDBC4B8857A574EFF7C1CE9DD79F ====

Содержание индексной карты (.CUE)

REM GENRE "20th Century"REM DATE 1999REM DISCID 31123015REM COMMENT "ExactAudioCopy v1.0b3"PERFORMER "Various Composers"TITLE "Neva Pilgrim Sings Music of Ernst Krenek, Richard Wernick, Geroge Rochberg, R..."FILE "01-Ernst Krenek-Three Verhaeren Songs, Op. 30a, La Barque.wav" WAVE TRACK 01 AUDIO TITLE "Three Verhaeren Songs, Op. 30a: La Barque" PERFORMER "Ernst Krenek" INDEX 01 00:00:00FILE "02-Ernst Krenek-Three Verhaeren Songs, Op. 30a, Un Soir.wav" WAVE TRACK 02 AUDIO TITLE "Three Verhaeren Songs, Op. 30a: Un Soir" PERFORMER "Ernst Krenek" INDEX 01 00:00:00FILE "03-Ernst Krenek-Three Verhaeren Songs, Op. 30a, L'Heure Mauvaise.wav" WAVE TRACK 03 AUDIO TITLE "Three Verhaeren Songs, Op. 30a: L'Heure Mauvaise" PERFORMER "Ernst Krenek" INDEX 01 00:00:00 TRACK 04 AUDIO TITLE "Haiku Of Basho" PERFORMER "Richard Wernick" INDEX 00 03:57:22FILE "04-Richard Wernick-Haiku Of Basho.wav" WAVE INDEX 01 00:00:00 TRACK 05 AUDIO TITLE "Songs in Praise of Krishna: 1. It Was In Bitter Maytime" PERFORMER "George Rochberg" INDEX 00 10:37:70FILE "05-George Rochberg-Songs in Praise of Krishna, 1. It Was In Bitter Maytime.wav" WAVE INDEX 01 00:00:00FILE "06-George Rochberg-Songs in Praise of Krishna, 2. After Long Sorrow.wav" WAVE TRACK 06 AUDIO TITLE "Songs in Praise of Krishna: 2. After Long Sorrow" PERFORMER "George Rochberg" INDEX 01 00:00:00FILE "07-George Rochberg-Songs in Praise of Krishna, 3. Her Slender Body.wav" WAVE TRACK 07 AUDIO TITLE "Songs in Praise of Krishna: 3. Her Slender Body" PERFORMER "George Rochberg" INDEX 01 00:00:00FILE "08-George Rochberg-Songs in Praise of Krishna, 4. As The Mirror.wav" WAVE TRACK 08 AUDIO TITLE "Songs in Praise of Krishna: 4. As The Mirror" PERFORMER "George Rochberg" INDEX 01 00:00:00FILE "09-George Rochberg-Songs in Praise of Krishna, 5. O Madhava.wav" WAVE TRACK 09 AUDIO TITLE "Songs in Praise of Krishna: 5. O Madhava" PERFORMER "George Rochberg" INDEX 01 00:00:00FILE "10-George Rochberg-Songs in Praise of Krishna, 6. Lord Of My Heart.wav" WAVE TRACK 10 AUDIO TITLE "Songs in Praise of Krishna: 6. Lord Of My Heart" PERFORMER "George Rochberg" INDEX 01 00:00:00FILE "11-George Rochberg-Songs in Praise of Krishna, 7. I Brought Honey.wav" WAVE TRACK 11 AUDIO TITLE "Songs in Praise of Krishna: 7. I Brought Honey" PERFORMER "George Rochberg" INDEX 01 00:00:00FILE "12-George Rochberg-Songs in Praise of Krishna, 8. My Mind Is Not On Housework.wav" WAVE TRACK 12 AUDIO TITLE "Songs in Praise of Krishna: 8. My Mind Is Not On Housework" PERFORMER "George Rochberg" INDEX 01 00:00:00FILE "13-George Rochberg-Songs in Praise of Krishna, 9. I Place Beauty Spots.wav" WAVE TRACK 13 AUDIO TITLE "Songs in Praise of Krishna: 9. I Place Beauty Spots" PERFORMER "George Rochberg" INDEX 01 00:00:00FILE "14-George Rochberg-Songs in Praise of Krishna, 10. Shining One.wav" WAVE TRACK 14 AUDIO TITLE "Songs in Praise of Krishna: 10. Shining One" PERFORMER "George Rochberg" INDEX 01 00:00:00FILE "15-George Rochberg-Songs in Praise of Krishna, 11. My Moon-Faced One.wav" WAVE TRACK 15 AUDIO TITLE "Songs in Praise of Krishna: 11. My Moon-Faced One" PERFORMER "George Rochberg" INDEX 01 00:00:00FILE "16-George Rochberg-Songs in Praise of Krishna, 12. Beloved, What More Shall I Say.wav" WAVE TRACK 16 AUDIO TITLE "Songs in Praise of Krishna: 12. Beloved, What More Shall I Say" PERFORMER "George Rochberg" INDEX 01 00:00:00FILE "17-George Rochberg-Songs in Praise of Krishna, 13. Let The Earth.wav" WAVE TRACK 17 AUDIO TITLE "Songs in Praise of Krishna: 13. Let The Earth" PERFORMER "George Rochberg" INDEX 01 00:00:00FILE "18-George Rochberg-Songs in Praise of Krishna, 14. O My Friend.wav" WAVE TRACK 18 AUDIO TITLE "Songs in Praise of Krishna: 14. O My Friend" PERFORMER "George Rochberg" INDEX 01 00:00:00 TRACK 19 AUDIO TITLE "Zeit-Lieder, Op. 215: 1. Kennst Du Den Augenblick" PERFORMER "Ernst Krenek" INDEX 00 06:25:43FILE "19-Ernst Krenek-Zeit-Lieder, Op. 215, 1. Kennst Du Den Augenblick.wav" WAVE INDEX 01 00:00:00FILE "20-Ernst Krenek-Zeit-Lieder, Op. 215, 2. Hab Hande.wav" WAVE TRACK 20 AUDIO TITLE "Zeit-Lieder, Op. 215: 2. Hab Hande" PERFORMER "Ernst Krenek" INDEX 01 00:00:00 TRACK 21 AUDIO TITLE "Requiem For The Party-Girl" PERFORMER "R. Murray Schafer" INDEX 00 02:47:15FILE "21-R. Murray Schafer-Requiem For The Party-Girl.wav" WAVE INDEX 01 00:00:00



Показать сообщения:    

Текущее время: 04-Дек 11:15

Часовой пояс: UTC + 3


Вы не можете начинать темы
Вы не можете отвечать на сообщения
Вы не можете редактировать свои сообщения
Вы не можете удалять свои сообщения
Вы не можете голосовать в опросах
Вы не можете прикреплять файлы к сообщениям
Вы не можете скачивать файлы