(Classical) Francesca Caccini - Maria, dolce Maria: sacred and secular songs - Elena Cecchi Fedi, Cappella di Santa Maria degli Angiolini, Gian Luca Lastraioli - 2013, FLAC (image+.cue) lossless


 

[Цитировать]

Francesca Caccini - Maria, dolce Maria: sacred and secular songs - Elena Cecchi Fedi, Cappella di Santa Maria degli Angiolini, Gian Luca Lastraioli
Жанр: Classical
Год издания диска: 2013
Издатель (лейбл): Brilliant Classics
Номер по каталогу: 94461
Дата записи: 2012
Аудиокодек: FLAC
Тип рипа: image+.cue
Битрейт аудио: lossless
Продолжительность: 65:02
Источник: собственный рип
Наличие сканов в содержимом раздачи: да
Треклист:
Francesca Caccini (1587-1641)
[1] Ch'Amor sia nudo
[2] Io veggio i campi
[3] O che nuovo stupor
[4] Che t'ho fatt'io
[5] Ciaccona
[6] Dov'io credea
[7] O chiome belle
[8] Maria, dolce Maria
[9] Romanesca
[10] Non so se quel sorriso
[11] Dispiegate, guance amate
[12] Se muove a giurar fede
[13] Lasciatemi qui solo
[14] S'io me'n vo
[15] O vive rose
[16] Chi desia di saper
Исполнители:
Elena Cecchi Fedi soprano
Cappella di Santa Maria degli Angiolini
Gian Luca Lastraioli

Лог создания рипа

Exact Audio Copy V1.0 beta 3 from 29. August 2011
EAC extraction logfile from 31. May 2013, 18:19
Elena Cecchi Fedi, Cappella di Santa Maria degli Angiolini, Gian Luca Lastraioli / Francesca Caccini - Sacred and Secular Songs
Used drive : HL-DT-STDVDRRW GWA-4164B Adapter: 5 ID: 0
Read mode : SecureUtilize accurate stream : YesDefeat audio cache : YesMake use of C2 pointers : No
Read offset correction : 102Overread into Lead-In and Lead-Out : NoFill up missing offset samples with silence : YesDelete leading and trailing silent blocks : NoNull samples used in CRC calculations : YesUsed interface : Native Win32 interface for Win NT & 2000
Used output format : User Defined EncoderSelected bitrate : 896 kBit/sQuality : HighAdd ID3 tag : NoCommand line compressor : C:\Program Files\Exact Audio Copy\FLAC\FLAC.EXEAdditional command line options : -V -8 %source%
TOC of the extracted CD
Track | Start | Length | Start sector | End sector --------------------------------------------------------- 1 | 0:00.00 | 3:25.38 | 0 | 15412 2 | 3:25.38 | 2:54.04 | 15413 | 28466 3 | 6:19.42 | 7:28.14 | 28467 | 62080 4 | 13:47.56 | 3:40.51 | 62081 | 78631 5 | 17:28.32 | 4:35.23 | 78632 | 99279 6 | 22:03.55 | 3:21.02 | 99280 | 114356 7 | 25:24.57 | 2:39.16 | 114357 | 126297 8 | 28:03.73 | 2:42.19 | 126298 | 138466 9 | 30:46.17 | 5:06.00 | 138467 | 161416 10 | 35:52.17 | 3:11.34 | 161417 | 175775 11 | 39:03.51 | 4:08.20 | 175776 | 194395 12 | 43:11.71 | 4:58.30 | 194396 | 216775 13 | 48:10.26 | 5:46.00 | 216776 | 242725 14 | 53:56.26 | 3:34.27 | 242726 | 258802 15 | 57:30.53 | 4:45.00 | 258803 | 280177 16 | 62:15.53 | 2:46.41 | 280178 | 292668
Range status and errors
Selected range
Filename D:\temp\Music\Francesca Caccini - Sacred and Secular Songs\Francesca Caccini - Sacred and Secular Songs.wav
Peak level 94.4 % Extraction speed 2.9 X Range quality 100.0 % Test CRC BF576AAE Copy CRC BF576AAE Copy OK
No errors occurred
End of status report
==== Log checksum 49483C3712175B9F5C137BEF8AC73770D3D26905F3C2DD5E09FAF2C61809325F ====



Показать сообщения:    

Текущее время: 08-Дек 21:14

Часовой пояс: UTC + 3


Вы не можете начинать темы
Вы не можете отвечать на сообщения
Вы не можете редактировать свои сообщения
Вы не можете удалять свои сообщения
Вы не можете голосовать в опросах
Вы не можете прикреплять файлы к сообщениям
Вы не можете скачивать файлы