(Piano, chamber, vocal) Эдисон Денисов - "Знаки на белом" • "Голубая тетрадь" • Фортепианное трио (Е.Комарова, В.Смехов, Е.Алиханова, В.Тонха, А.Ивашкин, Т.Алиханов, Л.Голуб, А.Лазарев) - 2009, FLAC (image+.cue) lossless


 

[Цитировать]

EDISON DENISOV:
»Signs upon white« • »The Blue book« • Piano trio-
-
-
-
- Жанр: Piano, chamber, vocal
Страна-производитель диска: Россия
Год издания диска: 2009
Издатель (лейбл): МГК им. Чайковского
Дата записи: 1978/85/87
Аудиокодек: FLAC
Тип рипа: image+.cue
Битрейт аудио: lossless
Продолжительность: 68'36''
Источник: собственный рип
Наличие сканов в содержимом раздачи: да
Треклист:
[1] »Знаки на Белом«
Фортепианное трио:
[2] I. Lento
[3] II. Presto
[4] III. Molto agitato
[5] IV. Lento
»Голубая тетрадь«:
[6] I. Предисловие
[7] II. Рыжий человек
[8] III. Снег лежит
[9] IV. Сон
[10] V. Тюк
[11] VI. Значение моря
[12] VII. Кассирша
[13] VIII. Гость на коне
[14] IX. Молодой человек, удививший сторожа
[15] X. Мне жалко, что я не зверь
Исполнители:
Елена Комарова - сопрано [6-15]
Вениамин Смехов - чтец [6-15]
Евгения Алиханова - скрипка [2-15]
Владимир Тонха - виолончель [2-5]
Александр Ивашкин - виолончель [6-15]
Тигран Алиханов - фортепиано [1-15]
Людмила Голуб - фортепиано [6-15]
Александр Лазарев - дирижёр [6-15]
-

Лог создания рипа

Exact Audio Copy V1.0 beta 3 from 29. August 2011
EAC extraction logfile from 18. June 2013, 21:45
Unknown Artist / Unknown Title
Used drive : PHILIPS CDRW1610A Adapter: 0 ID: 0
Read mode : SecureUtilize accurate stream : YesDefeat audio cache : YesMake use of C2 pointers : No
Read offset correction : 733Overread into Lead-In and Lead-Out : NoFill up missing offset samples with silence : YesDelete leading and trailing silent blocks : NoNull samples used in CRC calculations : YesUsed interface : Native Win32 interface for Win NT & 2000
Used output format : User Defined EncoderSelected bitrate : 128 kBit/sQuality : HighAdd ID3 tag : NoCommand line compressor : C:\Program Files\FLAC\flac.exeAdditional command line options : -T "COMMENT=rip by el coronel, rutracker.org" -8 -V %source%
TOC of the extracted CD
Track | Start | Length | Start sector | End sector --------------------------------------------------------- 1 | 0:00.00 | 14:43.23 | 0 | 66247 2 | 14:43.23 | 6:28.67 | 66248 | 95414 3 | 21:12.15 | 1:47.56 | 95415 | 103495 4 | 22:59.71 | 4:59.58 | 103496 | 125978 5 | 27:59.54 | 3:48.18 | 125979 | 143096 6 | 31:47.72 | 0:54.59 | 143097 | 147205 7 | 32:42.56 | 3:17.68 | 147206 | 162048 8 | 36:00.49 | 3:28.52 | 162049 | 177700 9 | 39:29.26 | 3:48.30 | 177701 | 194830 10 | 43:17.56 | 3:25.74 | 194831 | 210279 11 | 46:43.55 | 2:38.47 | 210280 | 222176 12 | 49:22.27 | 4:57.33 | 222177 | 244484 13 | 54:19.60 | 3:09.43 | 244485 | 258702 14 | 57:29.28 | 4:03.20 | 258703 | 276947 15 | 61:32.48 | 7:03.08 | 276948 | 308680
Range status and errors
Selected range
Filename C:\Documents and Settings\User.X-TEAM\Мои документы\Unknown Artist - Unknown Title.wav
Peak level 83.6 % Extraction speed 7.1 X Range quality 99.9 % Test CRC 1C42536C Copy CRC 1C42536C Copy OK
No errors occurred
AccurateRip summary
Track 1 not present in databaseTrack 2 not present in databaseTrack 3 not present in databaseTrack 4 not present in databaseTrack 5 not present in databaseTrack 6 not present in databaseTrack 7 not present in databaseTrack 8 not present in databaseTrack 9 not present in databaseTrack 10 not present in databaseTrack 11 not present in databaseTrack 12 not present in databaseTrack 13 not present in databaseTrack 14 not present in databaseTrack 15 not present in database
None of the tracks are present in the AccurateRip database
End of status report
==== Log checksum 823892901223C94CBB4669E559AB1AE8E1D1DF5406D902B32BE4C4F720800818 ====

Содержание индексной карты (.CUE)

REM GENRE AvantgardeREM DATE 2009REM DISCID ED10130FREM COMMENT "ExactAudioCopy v1.0b3"PERFORMER "Эдисон Денисов"TITLE "E.Denisov - Sings upon White; Piano Trio; The Blue Book"FILE "E.Denisov - Signs upon White; Piano Trio; The Blue Book.flac" WAVE TRACK 01 AUDIO TITLE "»Знаки на Белом«" PERFORMER "Т.Алиханов" INDEX 01 00:00:00 TRACK 02 AUDIO TITLE "Фортепианное трио: I. Lento" PERFORMER "Т.Алиханов, Е.Алиханова, В.Тонха" INDEX 00 14:40:40 INDEX 01 14:43:23 TRACK 03 AUDIO TITLE "II. Presto" PERFORMER "Т.Алиханов, Е.Алиханова, В.Тонха" INDEX 00 21:10:42 INDEX 01 21:12:15 TRACK 04 AUDIO TITLE "III. Molto agitato" PERFORMER "Т.Алиханов, Е.Алиханова, В.Тонха" INDEX 00 22:58:28 INDEX 01 22:59:71 TRACK 05 AUDIO TITLE "IV. Lento" PERFORMER "Т.Алиханов, Е.Алиханова, В.Тонха" INDEX 00 27:58:10 INDEX 01 27:59:54 TRACK 06 AUDIO TITLE "»Голубая тетрадь«: I. Предисловие" PERFORMER "Е.Комарова, В.Смехов и др." INDEX 00 31:45:11 INDEX 01 31:47:72 TRACK 07 AUDIO TITLE "II. Рыжий человек" PERFORMER "Е.Комарова, В.Смехов и др." INDEX 01 32:42:56 TRACK 08 AUDIO TITLE "III. Снег лежит" PERFORMER "Е.Комарова, В.Смехов и др." INDEX 00 35:59:41 INDEX 01 36:00:49 TRACK 09 AUDIO TITLE "IV. Сон" PERFORMER "Е.Комарова, В.Смехов и др." INDEX 01 39:29:26 TRACK 10 AUDIO TITLE "V. Тюк" PERFORMER "Е.Комарова, В.Смехов и др." INDEX 00 43:16:55 INDEX 01 43:17:56 TRACK 11 AUDIO TITLE "VI. Значение моря" PERFORMER "Е.Комарова, В.Смехов и др." INDEX 00 46:42:40 INDEX 01 46:43:55 TRACK 12 AUDIO TITLE "VII. Кассирша" PERFORMER "Е.Комарова, В.Смехов и др." INDEX 01 49:22:27 TRACK 13 AUDIO TITLE "VIII. Гость на коне" PERFORMER "Е.Комарова, В.Смехов и др." INDEX 00 54:18:60 INDEX 01 54:19:60 TRACK 14 AUDIO TITLE "IX. Молодой человек, удививший сторожа" PERFORMER "Е.Комарова, В.Смехов и др." INDEX 00 57:28:23 INDEX 01 57:29:28 TRACK 15 AUDIO TITLE "X. Мне жалко, что я не зверь" PERFORMER "Е.Комарова, В.Смехов и др." INDEX 00 61:31:37 INDEX 01 61:32:48
-На диске представлены записи, наверное, одних из наиболее удачных сочинений Эдисона Денисова. Я говорю так, потому что сколько я изучаю творчество "тройки советских авангардистов", столько же Денисов остаётся для меня по крайней мере самым труднодоступным. Многие его сочинения - если не большинство - отличает исключительная сухость, продуманность, если угодно, "математичность" языка и средств выразительности. Порою это сочетается со сложными метафоричными названиями, например "Смерть - это долгий сон" или "На пелене застывшего пруда…", что, к счастью, оставляет некоторый простор для фантазии.
"Знаки на белом" - одно из таких произведений. Оно имеет эпиграф, фразу из книги французского писателя Марселя Швоба: "И появилось королевство, но оно было замуровано белизной". Особую выразительную роль играют чередования тихих звуков и пауз, что заставляет волей-неволей вслушиваться внимательно, улавливать закономерности и выстраивать красивую картину из серо-белых оттенков-звуков.
Фортепианное трио по характеру напоминает сочинения коллег Денисова по "тройке" - Шнитке и Губайдулиной. От первого здесь знаменитый "нерв", от второй - характерные углублённость и трансцендентность, а также нетрадиционные способы звукоизвлечения.
Наконец, центральное место на диске всё же занимает "Голубая тетрадь" для сопрано, чтеца, скрипки, виолончели, двух фортепиано и трех групп колоколов. Это сценическое произведение вызывает только положительные эмоции, хоть и надо признать, что с музыкальной точки зрения оно характерно "денисовское", но абсурдно-юмористические тексты Хармса и модернистская поэзия Введенского как будто выставляют эту музыку в новом свете, и даже если все фрагменты "Тетради" не связаны друг с другом, в целом, именно благодаря музыкальному сопровождению, она становится единым целым.



Показать сообщения:    

Текущее время: 04-Дек 13:15

Часовой пояс: UTC + 3


Вы не можете начинать темы
Вы не можете отвечать на сообщения
Вы не можете редактировать свои сообщения
Вы не можете удалять свои сообщения
Вы не можете голосовать в опросах
Вы не можете прикреплять файлы к сообщениям
Вы не можете скачивать файлы