(Vocal) Beethoven - Songs Vol.2 (Liebeslieder) Peter Schreier - tenor, Walter Olbertz - piano - 1993, FLAC (image+.cue)


 

[Цитировать]

Ludwig van Beethoven- Songs Vol.2 (Liebeslieder) Peter Schreier - tenor, Walter Olbertz - piano
Жанр: Vocal
Страна-производитель диска: Germany
Год издания диска: 1993
Издатель (лейбл): BERLIN Classics
Номер по каталогу: BC 2083-2
Дата записи: 1970
Аудиокодек: FLAC
Тип рипа: image+.cue
Битрейт аудио: lossless
Продолжительность: 50:19
Источник: DC++
Наличие сканов в содержимом раздачи: да
Треклист:
Liebeslieder (Песни о любви)
1. Das Gluck der Freundschaft (Lebensgluck), Op.88
2. Seufzer eines Ungeliebten und Gegenliebe, WoO 118
3. Der liebende, WoO 139
4. Ruf vom Berge, WoO 147
5. An die Hoffnung, Op.32
6. An die Hoffnung, Op.94
7. An die Geliebte, WoO 140 (1. Fassung)
8. An die Geliebte, WoO 140 (2. Fassung)
9. Selbstgesprach, WoO 114
10. Gedenke mein, WoO 130
11. Ich denke dein, WoO 74
12. Die Liebe, Op.52 No.6
13. Das Blumchen Wunderhold, Op.52 No.8
14. Schilderung eines Madchens, WoO 107
15. An Minna, WoO 115
16. Die laute Klage, WoO 135
17. Als die Geliebte sich trennen wollte, WoO 132
18. Das liedchen von der Ruhe, Op.52 No.3
19. Sehnsucht, WoO 146
Исполнители:
Peter Schreier, tenor
Walter Olbertz, piano
Giesela Franke, piano (zu 11)

Лог создания рипа

Exact Audio Copy V1.0 beta 1 from 15. November 2010
EAC extraction logfile from 30. January 2013, 13:01
Peter Schreier, Walter Olbertz / Beethoven - Song II
Used drive : ASUS DRW-1608P Adapter: 0 ID: 0
Read mode : SecureUtilize accurate stream : YesDefeat audio cache : YesMake use of C2 pointers : No
Read offset correction : 48Overread into Lead-In and Lead-Out : NoFill up missing offset samples with silence : YesDelete leading and trailing silent blocks : NoNull samples used in CRC calculations : YesUsed interface : Installed external ASPI interface
Used output format : Monkey's Audio Lossless Encoder v3.99 DLLSample format : High Lossless Compression
TOC of the extracted CD
Track | Start | Length | Start sector | End sector --------------------------------------------------------- 1 | 0:00.00 | 2:13.42 | 0 | 10016 2 | 2:13.42 | 6:15.25 | 10017 | 38166 3 | 8:28.67 | 2:14.73 | 38167 | 48289 4 | 10:43.65 | 1:44.55 | 48290 | 56144 5 | 12:28.45 | 5:40.22 | 56145 | 81666 6 | 18:08.67 | 8:02.35 | 81667 | 117851 7 | 26:11.27 | 1:13.03 | 117852 | 123329 8 | 27:24.30 | 1:12.37 | 123330 | 128766 9 | 28:36.67 | 3:53.53 | 128767 | 146294 10 | 32:30.45 | 1:33.40 | 146295 | 153309 11 | 34:04.10 | 0:55.10 | 153310 | 157444 12 | 34:59.20 | 1:19.70 | 157445 | 163439 13 | 36:19.15 | 1:54.60 | 163440 | 172049 14 | 38:14.00 | 0:34.07 | 172050 | 174606 15 | 38:48.07 | 0:45.63 | 174607 | 178044 16 | 39:33.70 | 2:51.50 | 178045 | 190919 17 | 42:25.45 | 2:33.15 | 190920 | 202409 18 | 44:58.60 | 2:41.10 | 202410 | 214494 19 | 47:39.70 | 2:36.72 | 214495 | 226266
Range status and errors
Selected range
Filename D:\Downloads\Peter Schreier, Walter Olbertz - Beethoven - Songs II.ape
Peak level 100.0 % Extraction speed 0.3 X Range quality 100.0 % Copy CRC D372A750 Copy OK
No errors occurred
AccurateRip summary
Track 1 cannot be verified as accurate (confidence 27) [1AE69F3D], AccurateRip returned [C99AF3AD]Track 2 cannot be verified as accurate (confidence 26) [E25281B0], AccurateRip returned [5BFBAB50]Track 3 cannot be verified as accurate (confidence 26) [46B8ABEC], AccurateRip returned [128F46CC]Track 4 cannot be verified as accurate (confidence 26) [DCA52E00], AccurateRip returned [D50ECD98]Track 5 cannot be verified as accurate (confidence 27) [690E3E0A], AccurateRip returned [7B8BFCBA]Track 6 cannot be verified as accurate (confidence 27) [D0D433E7], AccurateRip returned [5D22FDA7]Track 7 cannot be verified as accurate (confidence 27) [0B075740], AccurateRip returned [C7D05678]Track 8 cannot be verified as accurate (confidence 27) [26C14513], AccurateRip returned [98DEBB3B]Track 9 cannot be verified as accurate (confidence 27) [978CA9FE], AccurateRip returned [B16C892E]Track 10 cannot be verified as accurate (confidence 27) [A659199A], AccurateRip returned [E226520A]Track 11 cannot be verified as accurate (confidence 27) [B5BBAB4F], AccurateRip returned [F381BA07]Track 12 cannot be verified as accurate (confidence 27) [10313459], AccurateRip returned [028180F9]Track 13 cannot be verified as accurate (confidence 27) [ED2BF47F], AccurateRip returned [1E20A8C7]Track 14 cannot be verified as accurate (confidence 27) [87D8B52D], AccurateRip returned [E0A0DCBD]Track 15 cannot be verified as accurate (confidence 27) [43AB0B7D], AccurateRip returned [E724216D]Track 16 cannot be verified as accurate (confidence 27) [DE468D5A], AccurateRip returned [8EC065FF]Track 17 cannot be verified as accurate (confidence 27) [9DD0C746], AccurateRip returned [5B9D0179]Track 18 cannot be verified as accurate (confidence 27) [C93B2E6F], AccurateRip returned [CEF6F9B7]Track 19 cannot be verified as accurate (confidence 27) [E21E795F], AccurateRip returned [439F45FF]
No tracks could be verified as accurateYou may have a different pressing from the one(s) in the database
End of status report

Содержание индексной карты (.CUE)

REM GENRE VocalREM DATE 1970REM DISCID ED0BC813REM COMMENT "ExactAudioCopy v1.0b1"PERFORMER "Peter Schreier, Walter Olbertz"TITLE "Beethoven - Song II"FILE "Peter Schreier, Walter Olbertz - Beethoven - Songs II.flac" WAVE TRACK 01 AUDIO TITLE "Das Gluck der Freundschaft (Lebensgluck), Op.88" PERFORMER "Peter Schreier, Walter Olbertz" INDEX 01 00:00:00 TRACK 02 AUDIO TITLE "Seufzer eines Ungeliebten und Gegenliebe, WoO118" PERFORMER "Peter Schreier, Walter Olbertz" INDEX 00 02:11:65 INDEX 01 02:13:42 TRACK 03 AUDIO TITLE "Der liebende, WoO139" PERFORMER "Peter Schreier, Walter Olbertz" INDEX 00 08:27:15 INDEX 01 08:28:67 TRACK 04 AUDIO TITLE "Ruf vom Berge, WoO147" PERFORMER "Peter Schreier, Walter Olbertz" INDEX 00 10:42:00 INDEX 01 10:43:65 TRACK 05 AUDIO TITLE "An die Hoffnung, Op.32" PERFORMER "Peter Schreier, Walter Olbertz" INDEX 00 12:27:35 INDEX 01 12:28:45 TRACK 06 AUDIO TITLE "An die Hoffnung, Op.94" PERFORMER "Peter Schreier, Walter Olbertz" INDEX 00 18:07:25 INDEX 01 18:08:67 TRACK 07 AUDIO TITLE "An die Geliebte, WoO140 (1. Fassung)" PERFORMER "Peter Schreier, Walter Olbertz" INDEX 00 26:09:25 INDEX 01 26:11:27 TRACK 08 AUDIO TITLE "An die Geliebte, WoO140 (2. Fassung)" PERFORMER "Peter Schreier, Walter Olbertz" INDEX 01 27:24:30 TRACK 09 AUDIO TITLE "Selbstgesprach, WoO114" PERFORMER "Peter Schreier, Walter Olbertz" INDEX 00 28:35:60 INDEX 01 28:36:67 TRACK 10 AUDIO TITLE "Gedenke mein, WoO130" PERFORMER "Peter Schreier, Walter Olbertz" INDEX 00 32:28:37 INDEX 01 32:30:45 TRACK 11 AUDIO TITLE "Ich denke dein, WoO74" PERFORMER "Peter Schreier, Walter Olbertz" INDEX 00 34:02:60 INDEX 01 34:04:10 TRACK 12 AUDIO TITLE "Die Liebe, Op.52 No.6" PERFORMER "Peter Schreier, Walter Olbertz" INDEX 00 34:57:65 INDEX 01 34:59:20 TRACK 13 AUDIO TITLE "Das Blumchen Wunderhold, Op.52 No.8" PERFORMER "Peter Schreier, Walter Olbertz" INDEX 00 36:18:10 INDEX 01 36:19:15 TRACK 14 AUDIO TITLE "Schilderung eines Madchens, WoO107" PERFORMER "Peter Schreier, Walter Olbertz" INDEX 00 38:12:67 INDEX 01 38:14:00 TRACK 15 AUDIO TITLE "An Minna, WoO115" PERFORMER "Peter Schreier, Walter Olbertz" INDEX 01 38:48:07 TRACK 16 AUDIO TITLE "Die laute Klage, WoO135" PERFORMER "Peter Schreier, Walter Olbertz" INDEX 00 39:32:17 INDEX 01 39:33:70 TRACK 17 AUDIO TITLE "Als die Geliebte sich trennen wollte, WoO132" PERFORMER "Peter Schreier, Walter Olbertz" INDEX 00 42:24:27 INDEX 01 42:25:45 TRACK 18 AUDIO TITLE "Das liedchen von der Ruhe, Op.52 No.3" PERFORMER "Peter Schreier, Walter Olbertz" INDEX 01 44:58:60 TRACK 19 AUDIO TITLE "Sehnsucht, WoO146" PERFORMER "Peter Schreier, Walter Olbertz" INDEX 00 47:38:30 INDEX 01 47:39:70

Лог проверки качества

AUDIOCHECKER v2.0 beta (build 457) - by Dester - opdester@freemail.hu~~~~~~~~~~~~~~~~~~~~~~~~~~~~~~~~~~-=== DO NOT EDIT THIS FILE! ===-
Path: ...\Beethoven Lieder Schreier 02
1 -=- Peter Schreier, Walter Olbertz - Beethoven - Songs II.flac -=- CDDA (100%)
148694420

Скриншот спектра частот

Доп. информация: Recording: Dresden, Studio Lukaskirche 1,2,10/1970



Показать сообщения:    

Текущее время: 07-Дек 17:29

Часовой пояс: UTC + 3


Вы не можете начинать темы
Вы не можете отвечать на сообщения
Вы не можете редактировать свои сообщения
Вы не можете удалять свои сообщения
Вы не можете голосовать в опросах
Вы не можете прикреплять файлы к сообщениям
Вы не можете скачивать файлы