(Vocal) Beethoven Songs Vol.3 - Peter Schreier, tenor; Walter Olbertz, piano (Scherzlieder; Vier Arietten und ein Duett mit italienischem Text, Op.82; Ernste Lieder) - 1970, FLAC (image+.cue)


 

[Цитировать]

Ludwig van Beethoven Songs Vol.3 - Peter Schreier, tenor; Walter Olbertz, piano
Жанр: Vocal
Страна-производитель диска: Germany
Год издания диска: 1993
Издатель (лейбл): BERLIN Classics
Номер по каталогу: BC2084-2
Дата записи: 1970
Аудиокодек: FLAC
Тип рипа: image+.cue
Битрейт аудио: lossless
Продолжительность: 63:34
Источник: DC++
Наличие сканов в содержимом раздачи: да
Треклист:
Scherzlieder
1. Aus Goethes Faust, Op.75 No.3
2. Urians Reise um die Welt, Scherzlieder Op.52 No.1
3. Trinklied (beim Abschied zu singen), Scherzlieder WoO 109
4. Punchlied, Scherzlieder WoO 111
5. Der Zufriendene Op.75 No.6
Vier Arietten und ein Duett mit italienischem Text, Op.82
6. Hoffnung
7. Liebesklage
8. L'amante impatiente (Stille Frage)
9. L'amante impatiente (Liebesungeduld)
10.Lebensgenuss
11.O care selve, WoO 119
12.La partenza (Der Abschied), WoO 124
13.In questa tomba oscura, WoO 133
14.La Tiranna, Canzonetta WoO 125
15.Que le temps me dure (Komposition in Moll), WoO 116
16.Plaisir d'aimer, WoO 128
Ernste Lieder
17. Der Wachtelschlag, WoO 129
18. Das Geheimnis, WoO 145
19. An Laura, WoO 112
20. Abendlied unterm gestirnten Himmel, WoO 150
21. Klage, WoO 113
22. Feuerfarb, Op. 52 No.2
23. Elegie auf den Tod eines Pudels, WoO 110
24. So oder so, WoO 148
25. Des Kriegers Abschied, WoO 143
26. Der freie Mann, WoO 117
27. Opferlied, WoO 126
Исполнители:
Peter Schreier, tenor
Walter Olbertz, piano
Adele Stolte, soprano (10)

Лог создания рипа

Exact Audio Copy V1.0 beta 3 from 29. August 2011
Отчёт EAC об извлечении, выполненном 13. июня 2013, 13:36
Beethoven - Peter Schreier, tenor - Walter Olbertz, piano / Songs Vol.3
Дисковод: Optiarc DVD RW AD-7283S Adapter: 2 ID: 0
Режим чтения : ДостоверностьИспользование точного потока : ДаОтключение кэша аудио : ДаИспользование указателей C2 : Нет
Коррекция смещения при чтении : 48Способность читать области Lead-in и Lead-out : НетЗаполнение пропущенных сэмплов тишиной : ДаУдаление блоков с тишиной в начале и конце : НетПри вычислениях CRC использовались нулевые сэмплы : ДаИнтерфейс : Встроенный Win32-интерфейс для Win NT/2000
Выходной формат : Внутренние WAV-операцииФормат сэмплов : 44.100 Гц; 16 бит; стерео
TOC извлечённого CD
Трек | Старт | Длительность | Начальный сектор | Конечный сектор --------------------------------------------------------------------- 1 | 0:00.00 | 2:26.36 | 0 | 10985 2 | 2:26.36 | 3:34.30 | 10986 | 27065 3 | 6:00.66 | 1:33.44 | 27066 | 34084 4 | 7:34.35 | 0:47.45 | 34085 | 37654 5 | 8:22.05 | 1:13.30 | 37655 | 43159 6 | 9:35.35 | 2:25.03 | 43160 | 54037 7 | 12:00.38 | 2:34.51 | 54038 | 65638 8 | 14:35.14 | 1:39.49 | 65639 | 73112 9 | 16:14.63 | 2:10.49 | 73113 | 82911 10 | 18:25.37 | 2:39.37 | 82912 | 94873 11 | 21:04.74 | 0:58.30 | 94874 | 99253 12 | 22:03.29 | 1:16.60 | 99254 | 105013 13 | 23:20.14 | 3:00.57 | 105014 | 118570 14 | 26:20.71 | 3:27.07 | 118571 | 134102 15 | 29:48.03 | 1:59.51 | 134103 | 143078 16 | 31:47.54 | 1:06.18 | 143079 | 148046 17 | 32:53.72 | 3:25.57 | 148047 | 163478 18 | 36:19.54 | 1:22.22 | 163479 | 169650 19 | 37:42.01 | 2:56.06 | 169651 | 182856 20 | 40:38.07 | 5:17.49 | 182857 | 206680 21 | 45:55.56 | 2:59.22 | 206681 | 220127 22 | 48:55.03 | 3:26.66 | 220128 | 235643 23 | 52:21.69 | 2:25.69 | 235644 | 246587 24 | 54:47.63 | 1:56.54 | 246588 | 255341 25 | 56:44.42 | 1:31.54 | 255342 | 262220 26 | 58:16.21 | 1:48.07 | 262221 | 270327 27 | 60:04.28 | 3:27.12 | 270328 | 285864
Характеристики диапазона извлечения и сообщения об ошибках
Выбранный диапазон
Имя файла D:\Work\Beethoven Lieder Schreier 03\Beethoven - Peter Schreier - Walter Olbertz - Songs Vol.3.wav
Пиковый уровень 96.0 % Скорость извлечения 4.4 X Качество диапазона 100.0 % CRC копии DFCB6F29 Копирование... OK
Ошибок не произошло
AccurateRip: сводка
Трек 1 отсутствует в базе данныхТрек 2 отсутствует в базе данныхТрек 3 отсутствует в базе данныхТрек 4 отсутствует в базе данныхТрек 5 отсутствует в базе данныхТрек 6 отсутствует в базе данныхТрек 7 отсутствует в базе данныхТрек 8 отсутствует в базе данныхТрек 9 отсутствует в базе данныхТрек 10 отсутствует в базе данныхТрек 11 отсутствует в базе данныхТрек 12 отсутствует в базе данныхТрек 13 отсутствует в базе данныхТрек 14 отсутствует в базе данныхТрек 15 отсутствует в базе данныхТрек 16 отсутствует в базе данныхТрек 17 отсутствует в базе данныхТрек 18 отсутствует в базе данныхТрек 19 отсутствует в базе данныхТрек 20 отсутствует в базе данныхТрек 21 отсутствует в базе данныхТрек 22 отсутствует в базе данныхТрек 23 отсутствует в базе данныхТрек 24 отсутствует в базе данныхТрек 25 отсутствует в базе данныхТрек 26 отсутствует в базе данныхТрек 27 отсутствует в базе данных
Ни одного трека нет в базе AccurateRip
Конец отчёта

Содержание индексной карты (.CUE)

REM GENRE VocalREM DATE 1970REM DISCID 940EE31BREM COMMENT "ExactAudioCopy v1.0b3"PERFORMER "Beethoven - Peter Schreier, tenor - Walter Olbertz, piano"TITLE "Songs Vol.3"FILE "Beethoven - Peter Schreier - Walter Olbertz - Songs Vol.3.flac" WAVE TRACK 01 AUDIO TITLE "Aus Goethes Faust, Scherzlieder Op.75 No.3" PERFORMER "Beethoven - Peter Schreier, tenor - Walter Olbertz, piano" FLAGS DCP INDEX 01 00:00:00 TRACK 02 AUDIO TITLE "Urians Reise um die Welt, Scherzlieder Op.52 No.1" PERFORMER "Beethoven - Peter Schreier, tenor - Walter Olbertz, piano" FLAGS DCP INDEX 01 02:26:36 TRACK 03 AUDIO TITLE "Trinklied (beim Abschied zu singen), Scherzlieder WoO109" PERFORMER "Beethoven - Peter Schreier, tenor - Walter Olbertz, piano" FLAGS DCP INDEX 01 06:00:66 TRACK 04 AUDIO TITLE "Punchlied, Scherzlieder WoO111" PERFORMER "Beethoven - Peter Schreier, tenor - Walter Olbertz, piano" FLAGS DCP INDEX 01 07:34:35 TRACK 05 AUDIO TITLE "Der Zufriendene Op.75 No.6" PERFORMER "Beethoven - Peter Schreier, tenor - Walter Olbertz, piano" FLAGS DCP INDEX 01 08:22:05 TRACK 06 AUDIO TITLE "Arietta et un Duo, Op.82 - ''Hoffnung''" PERFORMER "Beethoven - Peter Schreier, tenor - Walter Olbertz, piano" FLAGS DCP INDEX 01 09:35:35 TRACK 07 AUDIO TITLE "Arietta et un Duo, Op.82 - ''Liebesklage''" PERFORMER "Beethoven - Peter Schreier, tenor - Walter Olbertz, piano" FLAGS DCP INDEX 01 12:00:38 TRACK 08 AUDIO TITLE "Arietta et un Duo, Op.82 - ''L'amante impatiente (Stille Frage)''" PERFORMER "Beethoven - Peter Schreier, tenor - Walter Olbertz, piano" FLAGS DCP INDEX 01 14:35:14 TRACK 09 AUDIO TITLE "Arietta et un Duo, Op.82 - ''L'amante impatiente (Liebesungeduld)''" PERFORMER "Beethoven - Peter Schreier, tenor - Walter Olbertz, piano" FLAGS DCP INDEX 01 16:14:63 TRACK 10 AUDIO TITLE "Arietta et un Duo, Op.82 - ''Lebensgenuss''" PERFORMER "Beethoven - Peter Schreier, tenor - Walter Olbertz, piano" FLAGS DCP INDEX 01 18:25:37 TRACK 11 AUDIO TITLE "Arietta et un Duo, Op.82 - ''O care selve'', WoO119" PERFORMER "Beethoven - Peter Schreier, tenor - Walter Olbertz, piano" FLAGS DCP INDEX 01 21:04:74 TRACK 12 AUDIO TITLE "Arietta et un Duo, Op.82 - ''La partenza (Der Abschied)'', WoO124" PERFORMER "Beethoven - Peter Schreier, tenor - Walter Olbertz, piano" FLAGS DCP INDEX 01 22:03:29 TRACK 13 AUDIO TITLE "Arietta et un Duo, Op.82 - ''In questa tomba oscura'', WoO133" PERFORMER "Beethoven - Peter Schreier, tenor - Walter Olbertz, piano" FLAGS DCP INDEX 01 23:20:14

Лог проверки качества

AUDIOCHECKER v2.0 beta (build 457) - by Dester - opdester@freemail.hu~~~~~~~~~~~~~~~~~~~~~~~~~~~~~~~~~~-=== DO NOT EDIT THIS FILE! ===-
Path: ...\Beethoven Lieder Schreier 03
1 -=- Beethoven - Peter Schreier - Walter Olbertz - Songs Vol.3.flac -=- CDDA (100%)
65865684

Скриншот спектра частот

Доп. информация: Recording: Dresden, Studio Lukaskirche, 1,2,10,11/1970



Показать сообщения:    

Текущее время: 09-Дек 03:03

Часовой пояс: UTC + 3


Вы не можете начинать темы
Вы не можете отвечать на сообщения
Вы не можете редактировать свои сообщения
Вы не можете удалять свои сообщения
Вы не можете голосовать в опросах
Вы не можете прикреплять файлы к сообщениям
Вы не можете скачивать файлы