(Vocal) Ludwig van Beethoven - Songs Vol.1 - Peter Schreier, tenor; Walter Olbertz, piano (An die ferne Geliebte Op 98; Sechs Lieder von Christian Furchtegott Gellert op.48; Lieder nach Johann Wolfgang Goethe) 1970, FLAC (image+.cue)


 

[Цитировать]

Ludwig van Beethoven - Songs Vol.1 - Peter Schreier, tenor; Walter Olbertz, piano
Жанр: Vocal
Страна-производитель диска: Germany
Год издания диска: 1993
Издатель (лейбл): BERLIN Classics
Номер по каталогу: BC 2082-2
Дата записи: 1970
Аудиокодек: FLAC
Тип рипа: image+.cue
Битрейт аудио: lossless
Продолжительность: 67:01
Источник: DC++
Наличие сканов в содержимом раздачи: да
Треклист:
An die ferne Geliebte Op 98
1.1 Auf Dem Hugel sits ich, spahend
1.2 Wo Die Berge so blau
1.3 Leichte Segler in den Hohen
1.4 Diese Wolken in den Hohen
1.5 Es Kehret Der Maien, es bluhet die Au
1.6 Nimm Sie Hin Denn
2. Adelaide Op 46
3. Zartliche Liebe WoO 123
4. Der Kuss Op 128
5. Lied Aus Der Ferne WoO 137
6. Der Jungling In Der Fremde WoO 138
7. Resiganation WoO 149
8. Andenken WoO 136
Sechs Lieder von Christian Furchtegott Gellert op.48
9. Bitten
10. Die Liebe des Nachsten
11. Vom Tode
12. Die Ehre Gottes aus der Natur
13. Gottes Macht und Vorsehung
14. Busslied
Lieder nach Johann Wolfgang Goethe
15. Maigesang Op 52/4
16. Marmotte Op 52/7
17. Neue Liebe Neues Leben, Op 75/2
18. Wonne Der Wehmut Op 83/1
19. Sehnsucht Op 83/2
20. Mit Einem Gemalten Band Op 83/3
21. Freudvoll und Leidvoll Op 84/4
Исполнители:
Peter Schreier, tenor
Walter Olbertz, piano

Лог создания рипа

Exact Audio Copy V1.0 beta 3 from 29. August 2011
Отчёт EAC об извлечении, выполненном 10. июня 2013, 18:04
Beethoven / Beethoven - Songs Vol.1
Дисковод: Optiarc DVD RW AD-7283S Adapter: 2 ID: 0
Режим чтения : ДостоверностьИспользование точного потока : ДаОтключение кэша аудио : ДаИспользование указателей C2 : Нет
Коррекция смещения при чтении : 48Способность читать области Lead-in и Lead-out : НетЗаполнение пропущенных сэмплов тишиной : ДаУдаление блоков с тишиной в начале и конце : НетПри вычислениях CRC использовались нулевые сэмплы : ДаИнтерфейс : Встроенный Win32-интерфейс для Win NT/2000
Выходной формат : Внутренние WAV-операцииФормат сэмплов : 44.100 Гц; 16 бит; стерео
TOC извлечённого CD
Трек | Старт | Длительность | Начальный сектор | Конечный сектор --------------------------------------------------------------------- 1 | 0:00.00 | 14:42.06 | 0 | 66155 2 | 14:42.06 | 6:34.39 | 66156 | 95744 3 | 21:16.45 | 2:17.34 | 95745 | 106053 4 | 23:34.04 | 2:05.60 | 106054 | 115488 5 | 25:39.64 | 3:47.64 | 115489 | 132577 6 | 29:27.53 | 2:08.45 | 132578 | 142222 7 | 31:36.23 | 3:12.18 | 142223 | 156640 8 | 34:48.41 | 2:46.36 | 156641 | 169126 9 | 37:35.02 | 2:20.24 | 169127 | 179650 10 | 39:55.26 | 1:14.00 | 179651 | 185200 11 | 41:09.26 | 2:35.30 | 185201 | 196855 12 | 43:44.56 | 2:33.19 | 196856 | 208349 13 | 46:18.00 | 0:43.49 | 208350 | 211623 14 | 47:01.49 | 4:14.37 | 211624 | 230710 15 | 51:16.11 | 2:24.61 | 230711 | 241571 16 | 53:40.72 | 0:50.03 | 241572 | 245324 17 | 54:31.00 | 2:56.34 | 245325 | 258558 18 | 57:27.34 | 3:27.36 | 258559 | 274119 19 | 60:54.70 | 2:14.37 | 274120 | 284206 20 | 63:09.32 | 2:10.00 | 284207 | 293956 21 | 65:19.32 | 1:42.31 | 293957 | 301637
Характеристики диапазона извлечения и сообщения об ошибках
Выбранный диапазон
Имя файла D:\Work\Beethoven Lieder Schreier 01\Beethoven - Beethoven - Songs Vol.1.wav
Пиковый уровень 99.9 % Скорость извлечения 4.5 X Качество диапазона 99.9 % CRC копии D6886A75 Копирование... OK
Ошибок не произошло
AccurateRip: сводка
Трек 1 отсутствует в базе данныхТрек 2 отсутствует в базе данныхТрек 3 отсутствует в базе данныхТрек 4 отсутствует в базе данныхТрек 5 отсутствует в базе данныхТрек 6 отсутствует в базе данныхТрек 7 отсутствует в базе данныхТрек 8 отсутствует в базе данныхТрек 9 отсутствует в базе данныхТрек 10 отсутствует в базе данныхТрек 11 отсутствует в базе данныхТрек 12 отсутствует в базе данныхТрек 13 отсутствует в базе данныхТрек 14 отсутствует в базе данныхТрек 15 отсутствует в базе данныхТрек 16 отсутствует в базе данныхТрек 17 отсутствует в базе данныхТрек 18 отсутствует в базе данныхТрек 19 отсутствует в базе данныхТрек 20 отсутствует в базе данныхТрек 21 отсутствует в базе данных
Ни одного трека нет в базе AccurateRip
Конец отчёта

Содержание индексной карты (.CUE)

REM GENRE VocalREM DATE 1970REM DISCID 540FB515REM COMMENT "ExactAudioCopy v1.0b3"PERFORMER "Peter Schreier"TITLE "Beethoven - Songs Vol.1"FILE "Beethoven - Schreier - Songs Vol.1.flac" WAVE TRACK 01 AUDIO TITLE "An die ferne Geliebte,Op.98" PERFORMER "Peter Schreier" FLAGS DCP INDEX 01 00:00:00 TRACK 02 AUDIO TITLE "Adelaide,Op.46" PERFORMER "Peter Schreier" FLAGS DCP INDEX 01 14:42:06 TRACK 03 AUDIO TITLE "Zarliche Liebe,WoO 123" PERFORMER "Peter Schreier" FLAGS DCP INDEX 01 21:16:45 TRACK 04 AUDIO TITLE "Der Kuss,Op.128" PERFORMER "Peter Schreier" FLAGS DCP INDEX 01 23:34:04 TRACK 05 AUDIO TITLE "Lied aus der Ferne,WoO 137" PERFORMER "Peter Schreier" FLAGS DCP INDEX 01 25:39:64 TRACK 06 AUDIO TITLE "Der Jungling in der Fremde,Wo. 138" PERFORMER "Peter Schreier" FLAGS DCP INDEX 01 29:27:53 TRACK 07 AUDIO TITLE "Resignation,WoO 149" PERFORMER "Peter Schreier" FLAGS DCP INDEX 01 31:36:23 TRACK 08 AUDIO TITLE "Andenken,WoO 136" PERFORMER "Peter Schreier" FLAGS DCP INDEX 01 34:48:41 TRACK 09 AUDIO TITLE "Sechs Lieder von Christian Furchtegott,Op.48-Bitten" PERFORMER "Peter Schreier" FLAGS DCP INDEX 01 37:35:02 TRACK 10 AUDIO TITLE "Sechs Lieder von Christian Furchtegott,Op.48-Die Liebe des Nachsten" PERFORMER "Peter Schreier" FLAGS DCP INDEX 01 39:55:26 TRACK 11 AUDIO TITLE "Sechs Lieder von Christian Furchtegott,Op.48-Vom Tode" PERFORMER "Peter Schreier" FLAGS DCP INDEX 01 41:09:26 TRACK 12 AUDIO TITLE "Sechs Lieder von Christian Furchtegott,Op.48-Die Ehre Gottes aus der Natur" PERFORMER "Peter Schreier" FLAGS DCP INDEX 01 43:44:56 TRACK 13 AUDIO TITLE "Sechs Lieder von Christian Furchtegott,Op.48-Gottes Macht und Vorsehung" PERFORMER "Peter Schreier" FLAGS DCP INDEX 01 46:18:00 TRACK 14 AUDIO TITLE "Sechs Lieder von Christian Furchtegott,Op.48-Busslied" PERFORMER "Peter Schreier" FLAGS DCP INDEX 01 47:01:49 TRACK 15 AUDIO TITLE "Lieder nach Johann Wolfgang Goethe-=Mailied= [Op.52,No.4]" PERFORMER "Peter Schreier" FLAGS DCP INDEX 01 51:16:11 TRACK 16 AUDIO TITLE "Lieder nach Johann Wolfgang Goethe-=Marmotte= [Op.52,No.7]" PERFORMER "Peter Schreier" FLAGS DCP INDEX 01 53:40:72 TRACK 17 AUDIO TITLE "Lieder nach Johann Wolfgang Goethe-=Neue Liebe,neues Leben= [Op.75,No.2]" PERFORMER "Peter Schreier" FLAGS DCP INDEX 01 54:31:00 TRACK 18 AUDIO TITLE "Lieder nach Johann Wolfgang Goethe-=Wonne der Wehmut= [Op.83,No.1]" PERFORMER "Peter Schreier" FLAGS DCP INDEX 01 57:27:34 TRACK 19 AUDIO TITLE "Lieder nach Johann Wolfgang Goethe-=Sehnsucht= [Op.83,No.2]" PERFORMER "Peter Schreier" FLAGS DCP INDEX 01 60:54:70 TRACK 20 AUDIO TITLE "Lieder nach Johann Wolfgang Goethe-=Mit einem hemalten Band= [Op.83,No.3]" PERFORMER "Peter Schreier" FLAGS DCP INDEX 01 63:09:32 TRACK 21 AUDIO TITLE "Lieder nach Johann Wolfgang Goethe-=Freudvoll und leidvoll= [Op.84,No.4]" PERFORMER "Peter Schreier" FLAGS DCP INDEX 01 65:19:32

Лог проверки качества

AUDIOCHECKER v2.0 beta (build 457) - by Dester - opdester@freemail.hu~~~~~~~~~~~~~~~~~~~~~~~~~~~~~~~~~~-=== DO NOT EDIT THIS FILE! ===-
Path: ...\Beethoven Lieder Schreier 01
1 -=- Beethoven - Schreier - Songs Vol.1.flac -=- CDDA (100%)
128462676

Скриншот спектра частот

Доп. информация: Recording: Dresden, Studio Lukaskirche, 7,10/1968; 1,2/1970



Показать сообщения:    

Текущее время: 03-Дек 03:17

Часовой пояс: UTC + 3


Вы не можете начинать темы
Вы не можете отвечать на сообщения
Вы не можете редактировать свои сообщения
Вы не можете удалять свои сообщения
Вы не можете голосовать в опросах
Вы не можете прикреплять файлы к сообщениям
Вы не можете скачивать файлы