(Classical / Vocal) Петр Ильич Чайковский - Романсы / Tchaikovsky - Romances - Christianne Stotijn, Julius Drake (Onyx) - 2008, FLAC (image+.cue) lossless


 

[Цитировать]

Петр Чайковский - Романсы / Tchaikovsky - Romances - Christianne Stotijn, Julius Drake (Onyx)
Жанр: Classical / Vocal
Страна-производитель диска: EU
Год издания диска: 2008
Издатель (лейбл): Onyx
Номер по каталогу: 4034
Дата записи: 2008
Аудиокодек: FLAC
Тип рипа: image+.cue
Битрейт аудио: lossless
Продолжительность: 63:16
Источник: скачано с
сайт-источник/ник/другое: web
Наличие сканов в содержимом раздачи: да
Треклист:
01. Средь шумного бала / At The Ball Op.38 No.3 [0:02:33.72]
02. Нет, только тот, кто знал / None But The Lonely Heart Op.6 No.6 [0:03:31.08]
03. Как над горячею золой / Over Burning Ashes Op.25 No.2 [0:01:47.14]
04. Мой гений, мой ангел, мой друг / My Genius My Angel My Friend! [0:01:55.50]
05. Колыбельная песня / Lullaby Op.16 No.1 [0:03:18.45]
06. Примиренье / Reconciliation Op.25 No.1 [0:05:18.18]
07. Закатилось солнце / The Sun Has Set Op.73 No.4 [0:01:42.32]
08. Страшная минута / The Fearful Moment Op.28 No.6 [0:03:35.54]
09. Нам звезды кроткие сияли / Mild Stars Looked Down Op.60 No.12 [0:03:27.45]
10. Кабы знала я / Had I Only Known Op.47 No.1 [0:04:00.57]
11. Уж гасли в комнатах огни / The Lights Were Being Dimmed Op.63 No.5 [0:02:45.63]
12. Ни слова, о друг мой / Not A Word My Friend Op.6 No.5 [0:03:07.30]
13. Отчего? / Why? Op.6 No.5 [0:02:56.52]
14. Я ли в поле да не травушка была / The Bride's Lament Op.47 No.7 [0:05:48.15]
15. Песнь цыганки / The Gypsy Song Op.60 No.7 [0:02:41.09]
16. Не верь, мой друг / Do Not Believe My Friend Op.6 No.1 [0:03:58.64]
17. То было раннею весной / It Was In The Early Spring Op.38 No.2 [0:02:38.48]
18. Кукушка / Cuckoo Op.54 No.8 [0:02:31.65]
19. День ли царит / Can It Be Day? Op.47 No.6 [0:03:19.74]
20. Снова, как прежде, один / Again As Before Alone Op.73 No.6 [0:02:14.69]
Исполнители:
Christianne Stotijn, Messo-Soprano
Julius Drake, Piano
Recording 5-7 July 2008, Champs Hill, Pulborough, England

Лог создания рипа

Exact Audio Copy V1.0 beta 1 from 15. November 2010
EAC extraction logfile from 8. April 2011, 20:14
Christianne Stotijn - Julius Drake / Tchaikovsky : Romances
Used drive : TSSTcorpCDDVDW SE-S224Q Adapter: 3 ID: 0
Read mode : SecureUtilize accurate stream : YesDefeat audio cache : NoMake use of C2 pointers : Yes
Read offset correction : 6Overread into Lead-In and Lead-Out : NoFill up missing offset samples with silence : YesDelete leading and trailing silent blocks : NoNull samples used in CRC calculations : YesUsed interface : Native Win32 interface for Win NT & 2000
Used output format : User Defined EncoderSelected bitrate : 1024 kBit/sQuality : HighAdd ID3 tag : NoCommand line compressor : C:\Program Files (x86)\Exact Audio Copy\Flac\flac.exeAdditional command line options : -V -8 -T "artist=%a" -T "title=%t" -T "album=%g" -T "date=%y" -T "tracknumber=%n" -T "genre=%m" %s
TOC of the extracted CD
Track | Start | Length | Start sector | End sector --------------------------------------------------------- 1 | 0:00.00 | 2:33.72 | 0 | 11546 2 | 2:33.72 | 3:31.08 | 11547 | 27379 3 | 6:05.05 | 1:47.14 | 27380 | 35418 4 | 7:52.19 | 1:55.50 | 35419 | 44093 5 | 9:47.69 | 3:18.45 | 44094 | 58988 6 | 13:06.39 | 5:18.18 | 58989 | 82856 7 | 18:24.57 | 1:42.32 | 82857 | 90538 8 | 20:07.14 | 3:35.54 | 90539 | 106717 9 | 23:42.68 | 3:27.45 | 106718 | 122287 10 | 27:10.38 | 4:00.57 | 122288 | 140344 11 | 31:11.20 | 2:45.63 | 140345 | 152782 12 | 33:57.08 | 3:07.30 | 152783 | 166837 13 | 37:04.38 | 2:56.52 | 166838 | 180089 14 | 40:01.15 | 5:48.15 | 180090 | 206204 15 | 45:49.30 | 2:41.09 | 206205 | 218288 16 | 48:30.39 | 3:58.64 | 218289 | 236202 17 | 52:29.28 | 2:38.48 | 236203 | 248100 18 | 55:08.01 | 2:31.65 | 248101 | 259490 19 | 57:39.66 | 3:19.74 | 259491 | 274489 20 | 60:59.65 | 2:14.69 | 274490 | 284608
Range status and errors
Selected range
Filename C:\ICE\T.R.CS.JD\Christianne Stotijn - Julius Drake - Tchaikovsky - Romances.wav
Peak level 100.0 % Extraction speed 0.8 X Range quality 100.0 % Test CRC 3BD7F2DE Copy CRC 3BD7F2DE Copy OK
No errors occurred
AccurateRip summary
Track 1 accurately ripped (confidence 2) [FF391BCF]Track 2 accurately ripped (confidence 2) [88F6B768]Track 3 accurately ripped (confidence 2) [EA1AF7E0]Track 4 accurately ripped (confidence 2) [46377DD7]Track 5 accurately ripped (confidence 2) [0CB93B19]Track 6 accurately ripped (confidence 2) [9830C8E0]Track 7 accurately ripped (confidence 2) [D49E8F9B]Track 8 accurately ripped (confidence 2) [E2B0FDFB]Track 9 accurately ripped (confidence 2) [FF53D045]Track 10 accurately ripped (confidence 2) [2DDF3B75]Track 11 accurately ripped (confidence 2) [F0F1E9F4]Track 12 accurately ripped (confidence 2) [616DF275]Track 13 accurately ripped (confidence 2) [C5A918D9]Track 14 accurately ripped (confidence 2) [73917E5B]Track 15 accurately ripped (confidence 2) [D18E8EC1]Track 16 accurately ripped (confidence 2) [F8B2E507]Track 17 accurately ripped (confidence 2) [E4D3C779]Track 18 accurately ripped (confidence 2) [988A377E]Track 19 accurately ripped (confidence 2) [239BCB68]Track 20 accurately ripped (confidence 2) [B5002A0C]
All tracks accurately ripped
End of status report

Содержание индексной карты (.CUE)

REM GENRE VocalREM DATE 2008REM DISCID 070ED214REM COMMENT "ExactAudioCopy v1.0b1"PERFORMER "Christianne Stotijn - Julius Drake"TITLE "Tchaikovsky : Romances"FILE "Christianne Stotijn - Julius Drake - Tchaikovsky - Romances.flac" WAVE TRACK 01 AUDIO TITLE "At The Ball Op.38 No.3" PERFORMER "Christianne Stotijn - Julius Drake" INDEX 01 00:00:00 TRACK 02 AUDIO TITLE "None But The Lonely Heart Op.6 No.6" PERFORMER "Christianne Stotijn - Julius Drake" INDEX 01 02:33:72 TRACK 03 AUDIO TITLE "Over Burning Ashes Op.25 No.2" PERFORMER "Christianne Stotijn - Julius Drake" INDEX 01 06:05:05 TRACK 04 AUDIO TITLE "My Genius My Angel My Friend!" PERFORMER "Christianne Stotijn - Julius Drake" INDEX 01 07:52:19 TRACK 05 AUDIO TITLE "Lullaby Op.16 No.1" PERFORMER "Christianne Stotijn - Julius Drake" INDEX 01 09:47:69 TRACK 06 AUDIO TITLE "Reconciliation Op.25 No.1" PERFORMER "Christianne Stotijn - Julius Drake" INDEX 01 13:06:39 TRACK 07 AUDIO TITLE "The Sun Has Set Op.73 No.4" PERFORMER "Christianne Stotijn - Julius Drake" INDEX 01 18:24:57 TRACK 08 AUDIO TITLE "The Fearful Moment Op.28 No.6" PERFORMER "Christianne Stotijn - Julius Drake" INDEX 01 20:07:14 TRACK 09 AUDIO TITLE "Mild Stars Looked Down Op.60 No.12" PERFORMER "Christianne Stotijn - Julius Drake" INDEX 01 23:42:68 TRACK 10 AUDIO TITLE "Had I Only Known Op.47 No.1" PERFORMER "Christianne Stotijn - Julius Drake" INDEX 01 27:10:38 TRACK 11 AUDIO TITLE "The Lights Were Being Dimmed Op.63 No.5" PERFORMER "Christianne Stotijn - Julius Drake" INDEX 01 31:11:20 TRACK 12 AUDIO TITLE "Not A Word My Friend Op.6 No.5" PERFORMER "Christianne Stotijn - Julius Drake" INDEX 01 33:57:08 TRACK 13 AUDIO TITLE "Why? Op.6 No.5" PERFORMER "Christianne Stotijn - Julius Drake" INDEX 01 37:04:38 TRACK 14 AUDIO TITLE "The Bride's Lament Op.47 No.7" PERFORMER "Christianne Stotijn - Julius Drake" INDEX 01 40:01:15 TRACK 15 AUDIO TITLE "The Gypsy Song Op.60 No.7" PERFORMER "Christianne Stotijn - Julius Drake" INDEX 01 45:49:30 TRACK 16 AUDIO TITLE "Do Not Believe My Friend Op.6 No.1" PERFORMER "Christianne Stotijn - Julius Drake" INDEX 01 48:30:39 TRACK 17 AUDIO TITLE "It Was In The Early Spring Op.38 No.2" PERFORMER "Christianne Stotijn - Julius Drake" INDEX 01 52:29:28 TRACK 18 AUDIO TITLE "Cuckoo Op.54 No.8" PERFORMER "Christianne Stotijn - Julius Drake" INDEX 01 55:08:01 TRACK 19 AUDIO TITLE "Can It Be Day? Op.47 No.6" PERFORMER "Christianne Stotijn - Julius Drake" INDEX 01 57:39:66 TRACK 20 AUDIO TITLE "Again As Before Alone Op.73 No.6" PERFORMER "Christianne Stotijn - Julius Drake" INDEX 01 60:59:65



Показать сообщения:    

Текущее время: 09-Дек 03:06

Часовой пояс: UTC + 3


Вы не можете начинать темы
Вы не можете отвечать на сообщения
Вы не можете редактировать свои сообщения
Вы не можете удалять свои сообщения
Вы не можете голосовать в опросах
Вы не можете прикреплять файлы к сообщениям
Вы не можете скачивать файлы