(Classical) Henry Purcell - Victorious Love - Carolyn Sampson, Laurence Cummings, Elizabeth Kenny, Anne-Marie Lasla - 2007, FLAC (image+.cue) lossless


 

[Цитировать]

Henry Purcell - Victorious Love - Carolyn Sampson, Laurence Cummings, Elizabeth Kenny, Anne-Marie Lasla
Жанр: Classical
Страна-производитель диска: Sweden
Год издания диска: 2007
Издатель (лейбл): BIS
Номер по каталогу: BIS-SACD-1536
Дата записи: 2006
Аудиокодек: FLAC
Тип рипа: image+.cue
Битрейт аудио: lossless
Продолжительность: 71:40
Источник: собственный рип
Наличие сканов в содержимом раздачи: да
Треклист:
Henry Purcell (1659-1695)
[1] Sweeter than roses
[2] The fatal hour
[3] When first Amintas sued for a kiss
[4] The Plaint
[5] They tell us that you mighty powers above
[6] Man is for the woman made
[7] From silent shades
[8] Music for a while
[9] Now the night is chas'd away
[10] If music be the food of love
[11] Thrice happy lovers
[12] The bashful Thames
[13] I attempt from Love's sickness to fly in vain
[14] Oh! fair Cedaria
[15] Fairest isle
[16] O solitude
[17] If love's a sweet passion
[18] The Blessed Virgin's Expostulation
[19] An Evening Hymn
Исполнители:
Carolyn Sampson soprano
Laurence Cummings harpsichord & spinet
Elizabeth Kenny archlute & theorbo
Anne-Marie Lasla bass viol
Sarah Sexton violin I
Andrea Morris violin II
Jane Rogers viola

Лог создания рипа

Exact Audio Copy V1.0 beta 3 from 29. August 2011
EAC extraction logfile from 25. May 2013, 20:01
Carolyn Sampson, Laurence Cummings, Elizabeth Kenny, Anne-Marie Lasla / Purcell - Victorious Love
Used drive : HL-DT-STDVDRAM GSA-4083N Adapter: 1 ID: 0
Read mode : SecureUtilize accurate stream : YesDefeat audio cache : YesMake use of C2 pointers : No
Read offset correction : 667Overread into Lead-In and Lead-Out : NoFill up missing offset samples with silence : YesDelete leading and trailing silent blocks : NoNull samples used in CRC calculations : YesUsed interface : Native Win32 interface for Win NT & 2000
Used output format : User Defined EncoderSelected bitrate : 896 kBit/sQuality : HighAdd ID3 tag : NoCommand line compressor : C:\Program Files\Exact Audio Copy\Flac\flac.exeAdditional command line options : -V -8 %source%
TOC of the extracted CD
Track | Start | Length | Start sector | End sector --------------------------------------------------------- 1 | 0:00.00 | 3:25.65 | 0 | 15439 2 | 3:25.65 | 3:45.51 | 15440 | 32365 3 | 7:11.41 | 2:03.47 | 32366 | 41637 4 | 9:15.13 | 7:28.42 | 41638 | 75279 5 | 16:43.55 | 3:19.60 | 75280 | 90264 6 | 20:03.40 | 1:28.67 | 90265 | 96931 7 | 21:32.32 | 4:35.67 | 96932 | 117623 8 | 26:08.24 | 4:01.35 | 117624 | 135733 9 | 30:09.59 | 1:39.12 | 135734 | 143170 10 | 31:48.71 | 3:41.72 | 143171 | 159817 11 | 35:30.68 | 3:01.35 | 159818 | 173427 12 | 38:32.28 | 2:48.59 | 173428 | 186086 13 | 41:21.12 | 1:43.21 | 186087 | 193832 14 | 43:04.33 | 3:58.64 | 193833 | 211746 15 | 47:03.22 | 3:24.61 | 211747 | 227107 16 | 50:28.08 | 5:23.38 | 227108 | 251370 17 | 55:51.46 | 3:24.32 | 251371 | 266702 18 | 59:16.03 | 7:18.74 | 266703 | 299626 19 | 66:35.02 | 5:03.73 | 299627 | 322424
Range status and errors
Selected range
Filename J:\New Music\Purcell - Victorious Love\Purcell - Victorious Love.wav
Peak level 99.3 % Extraction speed 4.3 X Range quality 100.0 % Test CRC 69F2946E Copy CRC 69F2946E Copy OK
No errors occurred
End of status report
==== Log checksum 32F5437C63E880924EEF0C27D6D5F4CBEFE247B5B493AF7AD0F83D722F54F369 ====



Показать сообщения:    

Текущее время: 11-Дек 03:18

Часовой пояс: UTC + 3


Вы не можете начинать темы
Вы не можете отвечать на сообщения
Вы не можете редактировать свои сообщения
Вы не можете удалять свои сообщения
Вы не можете голосовать в опросах
Вы не можете прикреплять файлы к сообщениям
Вы не можете скачивать файлы