(Renaissance) Costanzo Festa (c.1490 - 1545) - Mottetti Vol.1 & 2 (Cantica Symphonia) - 1997, 2004, FLAC (tracks+.cue) lossless


 

[Цитировать]

Costanzo Festa (c.1490 - 1545) - Mottetti Vol.1 & 2 (Cantica Symphonia)
Жанр: Renaissance
Страна-производитель диска: Italy
Год издания диска: 1997, 2004
Издатель (лейбл): Stradivarius
Номер по каталогу: STR 11001
Дата записи: 1997, 2004
Аудиокодек: FLAC
Тип рипа: tracks+.cue
Битрейт аудио: lossless
Продолжительность: 133:08
Источник: собственный рип
Наличие сканов в содержимом раздачи: да
Треклист:
CD 1:
01. Domine non secundum peccata nostra
02. Angelus ad pastores ait
03. Sancta Maria succurre miseri
04. Ave nobilissima creatura
05. Lumen ad revelationem gentium
06. Surge amica mea
07. In illo tempore
08. O pulcherrima virgo
09. Ave regina caelorum
10. Alma redemptoris Mater
11. Quis dabit oculis nostris
CD 2:
01. Florentia, tempus est poenitentiae
02. Regem regum Dominum
03. Jesu Nazarene
04. Exaltabo te, Domine
05. Sub tuum praesidium
06. Deus, venerunt gentes
07. Factus est repente
08. Video in hac crucis ara
09. Ave, virgo gratiosa
10. Vidi speciosam
11. Libera me, Domine
Исполнители:
CANTICA SYMPHONIA
Kees Boeke & Giuseppe Maletto - direzione
Laura Fabris - soprano
Elisa Franzetti - soprano
Roberta Giua - soprano
Giuseppe Maletto - alto/tenore
Gianluigi Ghiringhelli - alto
Fabio Furnari - tenore
Paolo Cucci - baritono
Marco Scavazza - baritono
Antonio Abete - basso
Daniele Carnovich - basso
Svetlana Fomina - viella
Efix Puleo - viella
Mauro Morini - trombone e tromba da tirarsi

Лог создания рипа

CD 1:
Exact Audio Copy V1.0 beta 3 from 29. August 2011
EAC extraction logfile from 25. October 2012, 9:52
Cantica Symphonia / Costanzo Festa - Mottetti, vol.1
Used drive : SlimtypeeSAU108 4 Adapter: 0 ID: 0
Read mode : SecureUtilize accurate stream : YesDefeat audio cache : YesMake use of C2 pointers : No
Read offset correction : 6Overread into Lead-In and Lead-Out : NoFill up missing offset samples with silence : YesDelete leading and trailing silent blocks : NoNull samples used in CRC calculations : YesUsed interface : Native Win32 interface for Win NT & 2000Gap handling : Appended to previous track
Used output format : User Defined EncoderSelected bitrate : 768 kBit/sQuality : HighAdd ID3 tag : YesCommand line compressor : C:\Program Files\Exact Audio Copy\FLAC\FLAC.EXEAdditional command line options : -8 -V -T "ARTIST=%artist%" -T "TITLE=%title%" -T "ALBUM=%albumtitle%" -T "DATE=%year%" -T "TRACKNUMBER=%tracknr%" -T "GENRE=%genre%" -T "PERFORMER=%albuminterpret%" -T "COMPOSER=%composer%" %haslyrics%--tag-from-file=LYRICS="%lyricsfile%"%haslyrics% -T "ALBUMARTIST=%albumartist%" -T "DISCNUMBER=%cdnumber%" -T "TOTALDISCS=%totalcds%" -T "TOTALTRACKS=%numtracks%" -T "COMMENT=%comment%" %source% -o %dest%
TOC of the extracted CD
Track | Start | Length | Start sector | End sector --------------------------------------------------------- 1 | 0:00.00 | 6:34.54 | 0 | 29603 2 | 6:34.54 | 5:47.46 | 29604 | 55674 3 | 12:22.25 | 2:25.16 | 55675 | 66565 4 | 14:47.41 | 5:28.19 | 66566 | 91184 5 | 20:15.60 | 10:03.03 | 91185 | 136412 6 | 30:18.63 | 4:31.55 | 136413 | 156792 7 | 34:50.43 | 5:20.03 | 156793 | 180795 8 | 40:10.46 | 3:42.33 | 180796 | 197478 9 | 43:53.04 | 3:16.45 | 197479 | 212223 10 | 47:09.49 | 6:08.07 | 212224 | 239830 11 | 53:17.56 | 6:21.02 | 239831 | 268407
Track 1
Filename H:\Early music\Other\Festa\Costanzo Festa - Mottetti (Cantica Symphonia)\Vol. 1\01. Cantica Symphonia - Domine non secundum peccata nostra.wav
Pre-gap length 0:00:02.00
Peak level 71.6 % Extraction speed 2.5 X Track quality 99.9 % Test CRC 0FF4ECCF Copy CRC 0FF4ECCF Track not present in AccurateRip database Copy OK
Track 2
Filename H:\Early music\Other\Festa\Costanzo Festa - Mottetti (Cantica Symphonia)\Vol. 1\02. Cantica Symphonia - Angelus ad pastores ait.wav
Peak level 51.4 % Extraction speed 2.8 X Track quality 99.9 % Test CRC 27393790 Copy CRC 27393790 Track not present in AccurateRip database Copy OK
Track 3
Filename H:\Early music\Other\Festa\Costanzo Festa - Mottetti (Cantica Symphonia)\Vol. 1\03. Cantica Symphonia - Sancta Maria succurre miseri.wav
Peak level 64.3 % Extraction speed 3.1 X Track quality 100.0 % Test CRC 75B7B6C2 Copy CRC 75B7B6C2 Track not present in AccurateRip database Copy OK
Track 4
Filename H:\Early music\Other\Festa\Costanzo Festa - Mottetti (Cantica Symphonia)\Vol. 1\04. Cantica Symphonia - Ave nobilissima creatura.wav
Peak level 64.5 % Extraction speed 3.7 X Track quality 100.0 % Test CRC D2D0D24F Copy CRC D2D0D24F Track not present in AccurateRip database Copy OK
Track 5
Filename H:\Early music\Other\Festa\Costanzo Festa - Mottetti (Cantica Symphonia)\Vol. 1\05. Cantica Symphonia - Lumen ad revelationem gentium.wav
Peak level 68.1 % Extraction speed 4.4 X Track quality 100.0 % Test CRC 487D817B Copy CRC 487D817B Track not present in AccurateRip database Copy OK
Track 6
Filename H:\Early music\Other\Festa\Costanzo Festa - Mottetti (Cantica Symphonia)\Vol. 1\06. Cantica Symphonia - Surge amica mea.wav
Peak level 43.2 % Extraction speed 4.4 X Track quality 100.0 % Test CRC 9A25A114 Copy CRC 9A25A114 Track not present in AccurateRip database Copy OK
Track 7
Filename H:\Early music\Other\Festa\Costanzo Festa - Mottetti (Cantica Symphonia)\Vol. 1\07. Cantica Symphonia - In illo tempore.wav
Peak level 76.9 % Extraction speed 4.0 X Track quality 99.9 % Test CRC 4B377F92 Copy CRC 4B377F92 Track not present in AccurateRip database Copy OK
Track 8
Filename H:\Early music\Other\Festa\Costanzo Festa - Mottetti (Cantica Symphonia)\Vol. 1\08. Cantica Symphonia - O pulcherrima virgo.wav
Peak level 51.6 % Extraction speed 3.8 X Track quality 99.9 % Test CRC 9A50DE94 Copy CRC 9A50DE94 Track not present in AccurateRip database Copy OK
Track 9
Filename H:\Early music\Other\Festa\Costanzo Festa - Mottetti (Cantica Symphonia)\Vol. 1\09. Cantica Symphonia - Ave regina caelorum.wav
Peak level 73.7 % Extraction speed 4.7 X Track quality 100.0 % Test CRC 33AAD1A2 Copy CRC 33AAD1A2 Track not present in AccurateRip database Copy OK
Track 10
Filename H:\Early music\Other\Festa\Costanzo Festa - Mottetti (Cantica Symphonia)\Vol. 1\10. Cantica Symphonia - Alma redemptoris Mater.wav
Peak level 87.0 % Extraction speed 5.3 X Track quality 100.0 % Test CRC E40A1050 Copy CRC E40A1050 Track not present in AccurateRip database Copy OK
Track 11
Filename H:\Early music\Other\Festa\Costanzo Festa - Mottetti (Cantica Symphonia)\Vol. 1\11. Cantica Symphonia - Quis dabit oculis nostris.wav
Peak level 63.2 % Extraction speed 5.5 X Track quality 100.0 % Test CRC BBC15E21 Copy CRC BBC15E21 Track not present in AccurateRip database Copy OK
None of the tracks are present in the AccurateRip database
No errors occurred
End of status report
---- CUETools DB Plugin V2.1.3
[CTDB TOCID: t8a_WxTTLETNiZK9G0nwTBZsCfQ-] found, Submit result: already submitted[76783f3e] (2/2) Accurately ripped
==== Log checksum 53567B46C83494DC22931C8BEBCF9F8B5F625DAA8B8FA8A5E5182B22AEB86DD0 ====
CD 2:
Exact Audio Copy V1.0 beta 3 from 29. August 2011
EAC extraction logfile from 25. October 2012, 15:37
Cantica Symphonia / Costanzo Festa - Mottetti vol. 2
Used drive : SlimtypeeSAU108 4 Adapter: 0 ID: 0
Read mode : SecureUtilize accurate stream : YesDefeat audio cache : YesMake use of C2 pointers : No
Read offset correction : 6Overread into Lead-In and Lead-Out : NoFill up missing offset samples with silence : YesDelete leading and trailing silent blocks : NoNull samples used in CRC calculations : YesUsed interface : Native Win32 interface for Win NT & 2000Gap handling : Appended to previous track
Used output format : User Defined EncoderSelected bitrate : 768 kBit/sQuality : HighAdd ID3 tag : YesCommand line compressor : C:\Program Files\Exact Audio Copy\FLAC\FLAC.EXEAdditional command line options : -8 -V -T "ARTIST=%artist%" -T "TITLE=%title%" -T "ALBUM=%albumtitle%" -T "DATE=%year%" -T "TRACKNUMBER=%tracknr%" -T "GENRE=%genre%" -T "PERFORMER=%albuminterpret%" -T "COMPOSER=%composer%" %haslyrics%--tag-from-file=LYRICS="%lyricsfile%"%haslyrics% -T "ALBUMARTIST=%albumartist%" -T "DISCNUMBER=%cdnumber%" -T "TOTALDISCS=%totalcds%" -T "TOTALTRACKS=%numtracks%" -T "COMMENT=%comment%" %source% -o %dest%
TOC of the extracted CD
Track | Start | Length | Start sector | End sector --------------------------------------------------------- 1 | 0:00.00 | 4:44.15 | 0 | 21314 2 | 4:44.15 | 7:34.40 | 21315 | 55404 3 | 12:18.55 | 5:27.09 | 55405 | 79938 4 | 17:45.64 | 7:55.39 | 79939 | 115602 5 | 25:41.28 | 4:19.72 | 115603 | 135099 6 | 30:01.25 | 11:42.21 | 135100 | 187770 7 | 41:43.46 | 2:25.09 | 187771 | 198654 8 | 44:08.55 | 8:25.69 | 198655 | 236598 9 | 52:34.49 | 5:22.36 | 236599 | 260784 10 | 57:57.10 | 6:13.28 | 260785 | 288787 11 | 64:10.38 | 9:19.35 | 288788 | 330747
Track 1
Filename H:\Early music\Other\Festa\Costanzo Festa - Mottetti (Cantica Symphonia)\Vol. 2\01. Cantica Symphonia - Florentia, tempus est poenitentiae.wav
Pre-gap length 0:00:02.00
Peak level 91.7 % Extraction speed 2.5 X Track quality 99.9 % Test CRC 66C59004 Copy CRC 66C59004 Track not present in AccurateRip database Copy OK
Track 2
Filename H:\Early music\Other\Festa\Costanzo Festa - Mottetti (Cantica Symphonia)\Vol. 2\02. Cantica Symphonia - Regem regum Dominum.wav
Peak level 99.5 % Extraction speed 3.5 X Track quality 100.0 % Test CRC 9FA90337 Copy CRC 9FA90337 Track not present in AccurateRip database Copy OK
Track 3
Filename H:\Early music\Other\Festa\Costanzo Festa - Mottetti (Cantica Symphonia)\Vol. 2\03. Cantica Symphonia - Jesu Nazarene.wav
Peak level 73.7 % Extraction speed 3.8 X Track quality 100.0 % Test CRC 1610E0C0 Copy CRC 1610E0C0 Track not present in AccurateRip database Copy OK
Track 4
Filename H:\Early music\Other\Festa\Costanzo Festa - Mottetti (Cantica Symphonia)\Vol. 2\04. Cantica Symphonia - Exaltabo te, Domine.wav
Peak level 78.8 % Extraction speed 4.3 X Track quality 100.0 % Test CRC ABED6677 Copy CRC ABED6677 Track not present in AccurateRip database Copy OK
Track 5
Filename H:\Early music\Other\Festa\Costanzo Festa - Mottetti (Cantica Symphonia)\Vol. 2\05. Cantica Symphonia - Sub tuum praesidium.wav
Peak level 50.7 % Extraction speed 3.6 X Track quality 99.9 % Test CRC E0287441 Copy CRC E0287441 Track not present in AccurateRip database Copy OK
Track 6
Filename H:\Early music\Other\Festa\Costanzo Festa - Mottetti (Cantica Symphonia)\Vol. 2\06. Cantica Symphonia - Deus, venerunt gentes.wav
Peak level 68.4 % Extraction speed 5.1 X Track quality 100.0 % Test CRC 35AED377 Copy CRC 35AED377 Track not present in AccurateRip database Copy OK
Track 7
Filename H:\Early music\Other\Festa\Costanzo Festa - Mottetti (Cantica Symphonia)\Vol. 2\07. Cantica Symphonia - Factus est repente.wav
Peak level 86.1 % Extraction speed 4.5 X Track quality 100.0 % Test CRC E485D363 Copy CRC E485D363 Track not present in AccurateRip database Copy OK
Track 8
Filename H:\Early music\Other\Festa\Costanzo Festa - Mottetti (Cantica Symphonia)\Vol. 2\08. Cantica Symphonia - Video in hac crucis ara.wav
Peak level 54.4 % Extraction speed 5.0 X Track quality 99.9 % Test CRC D674DA9E Copy CRC D674DA9E Track not present in AccurateRip database Copy OK
Track 9
Filename H:\Early music\Other\Festa\Costanzo Festa - Mottetti (Cantica Symphonia)\Vol. 2\09. Cantica Symphonia - Ave, virgo gratiosa.wav
Peak level 70.2 % Extraction speed 5.6 X Track quality 100.0 % Test CRC 13E3913E Copy CRC 13E3913E Track not present in AccurateRip database Copy OK
Track 10
Filename H:\Early music\Other\Festa\Costanzo Festa - Mottetti (Cantica Symphonia)\Vol. 2\10. Cantica Symphonia - Vidi speciosam.wav
Peak level 96.7 % Extraction speed 5.9 X Track quality 100.0 % Test CRC D7506782 Copy CRC D7506782 Track not present in AccurateRip database Copy OK
Track 11
Filename H:\Early music\Other\Festa\Costanzo Festa - Mottetti (Cantica Symphonia)\Vol. 2\11. Cantica Symphonia - Libera me, Domine.wav
Peak level 63.6 % Extraction speed 6.3 X Track quality 100.0 % Test CRC 40D95DDE Copy CRC 40D95DDE Track not present in AccurateRip database Copy OK
None of the tracks are present in the AccurateRip database
No errors occurred
End of status report
---- CUETools DB Plugin V2.1.3
[CTDB TOCID: 5kH.XCNz7E_Xgvmw.P5_xsqnkMo-] found, Submit result: already submitted[b16e3f2d] (2/2) Accurately ripped
==== Log checksum 230DA7F1844319E24B8E91884A04C92E852EA6765A837538CADBA00B801218A0 ====

Содержание индексной карты (.CUE)

CD 1:
REM GENRE RenaissanceREM DATE 1996REM DISCID 9C0DFA0BREM COMMENT "ExactAudioCopy v1.0b3"PERFORMER "Cantica Symphonia"TITLE "Costanzo Festa - Mottetti, vol.1"FILE "01. Cantica Symphonia - Domine non secundum peccata nostra.wav" WAVE TRACK 01 AUDIO TITLE "Domine non secundum peccata nostra" PERFORMER "Cantica Symphonia" INDEX 01 00:00:00FILE "02. Cantica Symphonia - Angelus ad pastores ait.wav" WAVE TRACK 02 AUDIO TITLE "Angelus ad pastores ait" PERFORMER "Cantica Symphonia" INDEX 01 00:00:00FILE "03. Cantica Symphonia - Sancta Maria succurre miseri.wav" WAVE TRACK 03 AUDIO TITLE "Sancta Maria succurre miseri" PERFORMER "Cantica Symphonia" INDEX 01 00:00:00FILE "04. Cantica Symphonia - Ave nobilissima creatura.wav" WAVE TRACK 04 AUDIO TITLE "Ave nobilissima creatura" PERFORMER "Cantica Symphonia" INDEX 01 00:00:00FILE "05. Cantica Symphonia - Lumen ad revelationem gentium.wav" WAVE TRACK 05 AUDIO TITLE "Lumen ad revelationem gentium" PERFORMER "Cantica Symphonia" INDEX 01 00:00:00FILE "06. Cantica Symphonia - Surge amica mea.wav" WAVE TRACK 06 AUDIO TITLE "Surge amica mea" PERFORMER "Cantica Symphonia" INDEX 01 00:00:00FILE "07. Cantica Symphonia - In illo tempore.wav" WAVE TRACK 07 AUDIO TITLE "In illo tempore" PERFORMER "Cantica Symphonia" INDEX 01 00:00:00FILE "08. Cantica Symphonia - O pulcherrima virgo.wav" WAVE TRACK 08 AUDIO TITLE "O pulcherrima virgo" PERFORMER "Cantica Symphonia" INDEX 01 00:00:00FILE "09. Cantica Symphonia - Ave regina caelorum.wav" WAVE TRACK 09 AUDIO TITLE "Ave regina caelorum" PERFORMER "Cantica Symphonia" INDEX 01 00:00:00FILE "10. Cantica Symphonia - Alma redemptoris Mater.wav" WAVE TRACK 10 AUDIO TITLE "Alma redemptoris Mater" PERFORMER "Cantica Symphonia" INDEX 01 00:00:00FILE "11. Cantica Symphonia - Quis dabit oculis nostris.wav" WAVE TRACK 11 AUDIO TITLE "Quis dabit oculis nostris" PERFORMER "Cantica Symphonia" INDEX 01 00:00:00
CD 2:
REM GENRE RenaissanceREM DATE 1993REM DISCID 9511390BREM COMMENT "ExactAudioCopy v1.0b3"PERFORMER "Cantica Symphonia"TITLE "Costanzo Festa - Mottetti vol. 2"FILE "01. Cantica Symphonia - Florentia, tempus est poenitentiae.wav" WAVE TRACK 01 AUDIO TITLE "Florentia, tempus est poenitentiae" PERFORMER "Cantica Symphonia" INDEX 01 00:00:00FILE "02. Cantica Symphonia - Regem regum Dominum.wav" WAVE TRACK 02 AUDIO TITLE "Regem regum Dominum" PERFORMER "Cantica Symphonia" INDEX 01 00:00:00FILE "03. Cantica Symphonia - Jesu Nazarene.wav" WAVE TRACK 03 AUDIO TITLE "Jesu Nazarene" PERFORMER "Cantica Symphonia" INDEX 01 00:00:00FILE "04. Cantica Symphonia - Exaltabo te, Domine.wav" WAVE TRACK 04 AUDIO TITLE "Exaltabo te, Domine" PERFORMER "Cantica Symphonia" INDEX 01 00:00:00FILE "05. Cantica Symphonia - Sub tuum praesidium.wav" WAVE TRACK 05 AUDIO TITLE "Sub tuum praesidium" PERFORMER "Cantica Symphonia" INDEX 01 00:00:00FILE "06. Cantica Symphonia - Deus, venerunt gentes.wav" WAVE TRACK 06 AUDIO TITLE "Deus, venerunt gentes" PERFORMER "Cantica Symphonia" INDEX 01 00:00:00FILE "07. Cantica Symphonia - Factus est repente.wav" WAVE TRACK 07 AUDIO TITLE "Factus est repente" PERFORMER "Cantica Symphonia" INDEX 01 00:00:00FILE "08. Cantica Symphonia - Video in hac crucis ara.wav" WAVE TRACK 08 AUDIO TITLE "Video in hac crucis ara" PERFORMER "Cantica Symphonia" INDEX 01 00:00:00FILE "09. Cantica Symphonia - Ave, virgo gratiosa.wav" WAVE TRACK 09 AUDIO TITLE "Ave, virgo gratiosa" PERFORMER "Cantica Symphonia" INDEX 01 00:00:00FILE "10. Cantica Symphonia - Vidi speciosam.wav" WAVE TRACK 10 AUDIO TITLE "Vidi speciosam" PERFORMER "Cantica Symphonia" INDEX 01 00:00:00FILE "11. Cantica Symphonia - Libera me, Domine.wav" WAVE TRACK 11 AUDIO TITLE "Libera me, Domine" PERFORMER "Cantica Symphonia" INDEX 01 00:00:00
Доп. информация: Одна из любимейших у меня записей музыки Ренессанса.



Показать сообщения:    

Текущее время: 05-Дек 01:23

Часовой пояс: UTC + 3


Вы не можете начинать темы
Вы не можете отвечать на сообщения
Вы не можете редактировать свои сообщения
Вы не можете удалять свои сообщения
Вы не можете голосовать в опросах
Вы не можете прикреплять файлы к сообщениям
Вы не можете скачивать файлы