(Classical) Chamber Vespers: Miniature Masterpieces of the Italian Baroque (Tarditi, Banchieri, Cima, Finetti, Piccinini, Petrobelli, Frescobaldi, Monferrato, Crotti, Sances, Cazzati) - The Gonzaga Band - 2011, FLAC (image+.cue) lossless


 

[Цитировать]

Chamber Vespers: Miniature Masterpieces of the Italian Baroque (Tarditi, Banchieri, Cima, Finetti, Piccinini, Petrobelli, Frescobaldi, Monferrato, Crotti, Sances, Cazzati) - The Gonzaga Band
Жанр: Classical
Страна-производитель диска: UK
Год издания диска: 2011
Издатель (лейбл): Chandos Records
Номер по каталогу: CHAN 0782
Дата записи: 2010
Аудиокодек: FLAC
Тип рипа: image+.cue
Битрейт аудио: lossless
Продолжительность: 62:16
Источник: собственный рип
Наличие сканов в содержимом раздачи: да
Треклист:
Orazio Tarditi (1602 – 1677)
[1] Domine ad adiuvandum (1650) 2:20
Adriano Banchieri (1568 – 1634)
[2] Psalm I. Dixit Dominus (1613) 4:51
Giovanni Paolo Cima (c. 1570 – 1630)
[3] Sonata per cornetto (1610) 3:55
Giacomo Finetti (fl. 1605 – 1631)
premiere recording
[4] Psalm II. Laudate pueri (1613) 5:20
Alessandro Piccinini (1566 – c. 1638)
[5] Toccata quarta (1623) 1:26
Francesco Petrobelli (d. 1695)
premiere recording
[6] Psalm III. Laetatus sum (1670) 9:25
Girolamo Alessandro Frescobaldi (1583 – 1643)
[7] Canzon terza per basso solo (1634) 3:33
Orazio Tarditi
premiere recording
[8] Psalm IV. Nisi Dominus (1650) 4:45
Girolamo Alessandro Frescobaldi
[9] Capriccio sopra un soggetto (1626) 4:48
Natale Monferrato (c. 1615 – 1685)
premiere recording
[10] Psalm V. Lauda Jerusalem (MS, not dated) 6:10
Archangelo Crotti (fl. 1608)
[11] [Sonata sopra] Sancta Maria (1608) 2:06
Giovanni Felice Sances (c. 1600 – 1679)
[12] Hymn. Ave, maris stella (1638) 3:13
Adriano Banchieri
premiere recording
[13] Canticle. Magnificat (1613) 5:08
Maurizio Cazzati (1616 – 1678)
premiere recording
[14] Regina caeli (1667) 4:05
Исполнители:
The Gonzaga Band
Faye Newton soprano
Jamie Savan treble cornett • mute cornett
Richard Sweeney theorbo
Steven Devine harpsichord • chamber organ
with
Clare Wilkinson mezzo-soprano
Gawain Glenton treble cornett • mute cornett

Лог создания рипа

Exact Audio Copy V1.0 beta 3 from 29. August 2011
EAC extraction logfile from 2. May 2013, 0:40
The Gonzaga Band / Chamber Vespers
Used drive : HL-DT-STDVDRAM GSA-4083N Adapter: 1 ID: 0
Read mode : SecureUtilize accurate stream : YesDefeat audio cache : YesMake use of C2 pointers : No
Read offset correction : 667Overread into Lead-In and Lead-Out : NoFill up missing offset samples with silence : YesDelete leading and trailing silent blocks : NoNull samples used in CRC calculations : YesUsed interface : Native Win32 interface for Win NT & 2000
Used output format : User Defined EncoderSelected bitrate : 896 kBit/sQuality : HighAdd ID3 tag : NoCommand line compressor : C:\Program Files\Exact Audio Copy\Flac\flac.exeAdditional command line options : -V -8 %source%
TOC of the extracted CD
Track | Start | Length | Start sector | End sector --------------------------------------------------------- 1 | 0:00.00 | 2:26.62 | 0 | 11011 2 | 2:26.62 | 4:53.52 | 11012 | 33038 3 | 7:20.39 | 4:02.61 | 33039 | 51249 4 | 11:23.25 | 5:22.33 | 51250 | 75432 5 | 16:45.58 | 1:30.56 | 75433 | 82238 6 | 18:16.39 | 9:30.26 | 82239 | 125014 7 | 27:46.65 | 3:37.43 | 125015 | 141332 8 | 31:24.33 | 4:49.22 | 141333 | 163029 9 | 36:13.55 | 4:57.05 | 163030 | 185309 10 | 41:10.60 | 6:15.25 | 185310 | 213459 11 | 47:26.10 | 2:12.24 | 213460 | 223383 12 | 49:38.34 | 3:19.73 | 223384 | 238381 13 | 52:58.32 | 5:07.49 | 238382 | 261455 14 | 58:06.06 | 4:07.69 | 261456 | 280049
Range status and errors
Selected range
Filename J:\New Music\Chamber Vespers - The Gonzaga Band\Chamber Vespers.wav
Peak level 98.3 % Extraction speed 3.4 X Range quality 99.9 % Test CRC F193F6BE Copy CRC F193F6BE Copy OK
No errors occurred
End of status report
==== Log checksum F11A27F76C2196466EB23E550663FC94847002FE0D063FB1813B1D3A55098D95 ====



Показать сообщения:    

Текущее время: 04-Дек 23:24

Часовой пояс: UTC + 3


Вы не можете начинать темы
Вы не можете отвечать на сообщения
Вы не можете редактировать свои сообщения
Вы не можете удалять свои сообщения
Вы не можете голосовать в опросах
Вы не можете прикреплять файлы к сообщениям
Вы не можете скачивать файлы