(Vocal, Songs) Sea Chanters On Tour - Songs by Dello Joio, Alfven, Berger, Carmichael, Lennon & McCartney, Valasquez, Knight, Berkey, Miller & Jackson, etc. (United States Navy Sea Chanters, Gambone) - 2000, FLAC (tracks+.cue) lossless


 

[Цитировать]

Sea Chanters On Tour - Songs by Dello Joio, Alfven, Berger, Carmichael, Lennon & McCartney, Valasquez, Knight, Berkey, Miller & Jackson, etc. (United States Navy Sea Chanters, Gambone)
Жанр: Vocal, Songs
Страна-производитель диска: United States
Год издания диска: 2000
Издатель (лейбл): US Navy
Номер по каталогу: None
Дата записи: 2000
Аудиокодек: FLAC
Тип рипа: tracks+.cue
Битрейт аудио: lossless
Продолжительность: 1:05:31
Источник: собственный рип
сайт-источник/ник/другое: CD
Наличие сканов в содержимом раздачи: да
Треклист:
1. Norman Dello Joio Of Crows and Clusters 2:25
2. Hugo Alfven Aftonen 2:50
Jean Berger Three Poems (5:19)
3. Belshazzar Had A Letter 1:17
4. To Make A Prarie 2:03
5. Answer July (Vidala) 1:59
6. Hoagy Carmichael The Nearness Of You 3:08
7. John Lennon & Paul McCartney Can't Buy Me Love 1:18
8. John Lennon & Paul McCartney Michelle 3:10
9. Consuelo Valazquez Besame Mucho 3:15
10. Eric Knight Chantey Medley 7:06
11. Jackson Berkey View Me, Lord, A Work Of Thine 4:07
12. Sy Miller & Jill Jackson Let There Be Peace On Earth 2:32
13. David C. Dickau If Music Be The Food Of Love 4:07
14. Hubert Bird Who Walk With Beauty 4:35
15. Robert H. Young Deep Wet Moss 1:36
16. Robert H. Young God Is At The Anvil 0:52
17. Ron Nelson O Loard, How Can We Know Thee? 2:55
18. Ron Nelson Cause Us, O Lord 3:17
19. Kirke Mechem Danuel, Op. 51, a 4:18
20. Bruce Trinkley American Legacy 5:00
21. Kurt Bestor Prayer Of The Children 3:41
Исполнители:
United States Navy Sea Chanters
Commander Ralph M. Gambone, Leader

Лог создания рипа

Exact Audio Copy V1.0 beta 3 from 29. August 2011
EAC extraction logfile from 9. May 2013, 11:29
Various Artists / Sea Chanters on Tour
Used drive : HL-DT-STDVDRAM GE24NU30 Adapter: 1 ID: 0
Read mode : SecureUtilize accurate stream : YesDefeat audio cache : YesMake use of C2 pointers : No
Read offset correction : 667Overread into Lead-In and Lead-Out : NoFill up missing offset samples with silence : YesDelete leading and trailing silent blocks : NoNull samples used in CRC calculations : YesUsed interface : Native Win32 interface for Win NT & 2000Gap handling : Appended to previous track
Used output format : User Defined EncoderSelected bitrate : 320 kBit/sQuality : HighAdd ID3 tag : YesCommand line compressor : C:\Program Files (x86)\FLAC\flac.exeAdditional command line options : -6 -V -T "ARTIST=%artist%" -T "TITLE=%title%" -T "ALBUM=%albumtitle%" -T "TRACKNUMBER=%tracknr%" %source% -o %dest%
TOC of the extracted CD
Track | Start | Length | Start sector | End sector --------------------------------------------------------- 1 | 0:00.00 | 2:25.17 | 0 | 10891 2 | 2:25.17 | 2:50.20 | 10892 | 23661 3 | 5:15.37 | 1:17.33 | 23662 | 29469 4 | 6:32.70 | 2:02.45 | 29470 | 38664 5 | 8:35.40 | 1:58.72 | 38665 | 47586 6 | 10:34.37 | 3:07.48 | 47587 | 61659 7 | 13:42.10 | 1:17.40 | 61660 | 67474 8 | 14:59.50 | 3:09.45 | 67475 | 81694 9 | 18:09.20 | 3:14.40 | 81695 | 96284 10 | 21:23.60 | 7:06.30 | 96285 | 128264 11 | 28:30.15 | 4:06.45 | 128265 | 146759 12 | 32:36.60 | 2:31.72 | 146760 | 158156 13 | 35:08.57 | 4:07.13 | 158157 | 176694 14 | 39:15.70 | 4:34.65 | 176695 | 197309 15 | 43:50.60 | 1:36.25 | 197310 | 204534 16 | 45:27.10 | 0:51.60 | 204535 | 208419 17 | 46:18.70 | 2:55.32 | 208420 | 221576 18 | 49:14.27 | 3:17.00 | 221577 | 236351 19 | 52:31.27 | 4:17.38 | 236352 | 255664 20 | 56:48.65 | 4:59.62 | 255665 | 278151 21 | 61:48.52 | 3:40.38 | 278152 | 294689
Track 1
Filename C:\Torrents\Sea Chanters on Tour\01-Norman Dello Joio-Of Crows and Clusters.wav
Pre-gap length 0:00:02.00
Peak level 97.0 % Extraction speed 1.1 X Track quality 100.0 % Test CRC 5BDA047B Copy CRC 5BDA047B Track not present in AccurateRip database Copy OK
Track 2
Filename C:\Torrents\Sea Chanters on Tour\02-Hugo Alfven-Aftonen.wav
Pre-gap length 0:00:04.45
Peak level 56.0 % Extraction speed 1.2 X Track quality 100.0 % Test CRC 73CA9FDA Copy CRC 73CA9FDA Track not present in AccurateRip database Copy OK
Track 3
Filename C:\Torrents\Sea Chanters on Tour\03-Jean Berger-Three Poems - Belshazzar Had A Letter.wav
Pre-gap length 0:00:04.02
Peak level 90.2 % Extraction speed 1.0 X Track quality 100.0 % Test CRC D4E18CE0 Copy CRC D4E18CE0 Track not present in AccurateRip database Copy OK
Track 4
Filename C:\Torrents\Sea Chanters on Tour\04-Jean Berger-Three Poems - To Make A Prarie.wav
Pre-gap length 0:00:01.13
Peak level 67.2 % Extraction speed 1.2 X Track quality 100.0 % Test CRC 055C8F0B Copy CRC 055C8F0B Track not present in AccurateRip database Copy OK
Track 5
Filename C:\Torrents\Sea Chanters on Tour\05-Jean Berger-Three Poems - Answer July (Vidala).wav
Pre-gap length 0:00:02.03
Peak level 97.1 % Extraction speed 1.2 X Track quality 100.0 % Test CRC 86A1DEC2 Copy CRC 86A1DEC2 Track not present in AccurateRip database Copy OK
Track 6
Filename C:\Torrents\Sea Chanters on Tour\06-Hoagy Carmichael-The Nearness Of You.wav
Pre-gap length 0:00:04.07
Peak level 83.8 % Extraction speed 1.4 X Track quality 100.0 % Test CRC 08ED61C4 Copy CRC 08ED61C4 Track not present in AccurateRip database Copy OK
Track 7
Filename C:\Torrents\Sea Chanters on Tour\07-John Lennon & Paul McCartney-Can't Buy Me Love.wav
Pre-gap length 0:00:04.43
Peak level 89.2 % Extraction speed 1.1 X Track quality 100.0 % Test CRC 29AEDD4D Copy CRC 29AEDD4D Track not present in AccurateRip database Copy OK
Track 8
Filename C:\Torrents\Sea Chanters on Tour\08-John Lennon & Paul McCartney-Michelle.wav
Pre-gap length 0:00:04.63
Peak level 87.4 % Extraction speed 1.5 X Track quality 100.0 % Test CRC 934B016A Copy CRC 934B016A Track not present in AccurateRip database Copy OK
Track 9
Filename C:\Torrents\Sea Chanters on Tour\09-Consuelo Valazquez-Besame Mucho.wav
Pre-gap length 0:00:04.58
Peak level 97.1 % Extraction speed 1.4 X Track quality 99.9 % Test CRC 32D6E2E7 Copy CRC 32D6E2E7 Track not present in AccurateRip database Copy OK
Track 10
Filename C:\Torrents\Sea Chanters on Tour\10-arr. Eric Knight-Chantey Medley.wav
Pre-gap length 0:00:04.43
Peak level 97.7 % Extraction speed 1.9 X Track quality 100.0 % Test CRC E8D3F36A Copy CRC E8D3F36A Track not present in AccurateRip database Copy OK
Track 11
Filename C:\Torrents\Sea Chanters on Tour\11-Jackson Berkey-View Me, Lord, A Work Of Thine.wav
Pre-gap length 0:00:05.25
Peak level 94.4 % Extraction speed 1.9 X Track quality 100.0 % Test CRC A4A2C881 Copy CRC A4A2C881 Track not present in AccurateRip database Copy OK
Track 12
Filename C:\Torrents\Sea Chanters on Tour\12-Sy Miller & Jill Jackson-Let There Be Peace On Earth.wav
Pre-gap length 0:00:04.43
Peak level 96.9 % Extraction speed 1.8 X Track quality 100.0 % Test CRC 302CB566 Copy CRC 302CB566 Track not present in AccurateRip database Copy OK
Track 13
Filename C:\Torrents\Sea Chanters on Tour\13-David C. Dickau-If Music Be The Food Of Love.wav
Pre-gap length 0:00:05.15
Peak level 97.7 % Extraction speed 2.0 X Track quality 100.0 % Test CRC EBE8AC36 Copy CRC EBE8AC36 Track not present in AccurateRip database Copy OK
Track 14
Filename C:\Torrents\Sea Chanters on Tour\14-Hubert Bird-Who Walk With Beauty.wav
Pre-gap length 0:00:04.40
Peak level 97.7 % Extraction speed 1.9 X Track quality 99.9 % Test CRC E58BE1AB Copy CRC E58BE1AB Track not present in AccurateRip database Copy OK
Track 15
Filename C:\Torrents\Sea Chanters on Tour\15-Robert H. Young-Deep Wet Moss.wav
Pre-gap length 0:00:04.38
Peak level 97.7 % Extraction speed 1.8 X Track quality 100.0 % Test CRC B9DC28FF Copy CRC B9DC28FF Track not present in AccurateRip database Copy OK
Track 16
Filename C:\Torrents\Sea Chanters on Tour\16-Robert H. Young-God Is At The Anvil.wav
Pre-gap length 0:00:01.43
Peak level 97.7 % Extraction speed 0.7 X Track quality 99.5 % Test CRC 425A5514 Copy CRC 425A5514 Track not present in AccurateRip database Copy OK
Track 17
Filename C:\Torrents\Sea Chanters on Tour\17-Ron Nelson-O Loard, How Can We Know Thee.wav
Pre-gap length 0:00:04.43
Peak level 97.3 % Extraction speed 2.1 X Track quality 100.0 % Test CRC 81A37B7B Copy CRC 81A37B7B Track not present in AccurateRip database Copy OK
Track 18
Filename C:\Torrents\Sea Chanters on Tour\18-Ron Nelson-Cause Us, O Lord.wav
Pre-gap length 0:00:02.12
Peak level 97.4 % Extraction speed 2.2 X Track quality 100.0 % Test CRC E5256711 Copy CRC E5256711 Track not present in AccurateRip database Copy OK
Track 19
Filename C:\Torrents\Sea Chanters on Tour\19-Kirke Mechem-Danuel, Op. 51, a.wav
Pre-gap length 0:00:04.45
Peak level 96.8 % Extraction speed 2.3 X Track quality 100.0 % Test CRC 8F3F4D78 Copy CRC 8F3F4D78 Track not present in AccurateRip database Copy OK
Track 20
Filename C:\Torrents\Sea Chanters on Tour\20-Bruce Trinkley-American Legacy.wav
Pre-gap length 0:00:04.45
Peak level 97.7 % Extraction speed 2.5 X Track quality 100.0 % Test CRC 852A89CA Copy CRC 852A89CA Track not present in AccurateRip database Copy OK
Track 21
Filename C:\Torrents\Sea Chanters on Tour\21-Kurt Bestor-Prayer Of The Children.wav
Pre-gap length 0:00:04.42
Peak level 97.4 % Extraction speed 2.4 X Track quality 100.0 % Test CRC 01111625 Copy CRC 01111625 Track not present in AccurateRip database Copy OK
None of the tracks are present in the AccurateRip database
No errors occurred
End of status report
==== Log checksum 2B8108D2C81A67E51E9094D4C189B1097A86961AEAD95CC30D8A3338DA4F0211 ====

Содержание индексной карты (.CUE)

REM GENRE ChoralREM DATE 2000REM DISCID 170F5915REM COMMENT "ExactAudioCopy v1.0b3"PERFORMER "Various Artists"TITLE "Sea Chanters on Tour"FILE "01-Norman Dello Joio-Of Crows and Clusters.wav" WAVE TRACK 01 AUDIO TITLE "Of Crows and Clusters" PERFORMER "Norman Dello Joio" INDEX 01 00:00:00 TRACK 02 AUDIO TITLE "Aftonen" PERFORMER "Hugo Alfven" INDEX 00 02:20:47FILE "02-Hugo Alfven-Aftonen.wav" WAVE INDEX 01 00:00:00 TRACK 03 AUDIO TITLE "Three Poems - Belshazzar Had A Letter" PERFORMER "Jean Berger" INDEX 00 02:46:18FILE "03-Jean Berger-Three Poems - Belshazzar Had A Letter.wav" WAVE INDEX 01 00:00:00 TRACK 04 AUDIO TITLE "Three Poems - To Make A Prarie" PERFORMER "Jean Berger" INDEX 00 01:16:20FILE "04-Jean Berger-Three Poems - To Make A Prarie.wav" WAVE INDEX 01 00:00:00 TRACK 05 AUDIO TITLE "Three Poems - Answer July (Vidala)" PERFORMER "Jean Berger" INDEX 00 02:00:42FILE "05-Jean Berger-Three Poems - Answer July (Vidala).wav" WAVE INDEX 01 00:00:00 TRACK 06 AUDIO TITLE "The Nearness Of You" PERFORMER "Hoagy Carmichael" INDEX 00 01:54:65FILE "06-Hoagy Carmichael-The Nearness Of You.wav" WAVE INDEX 01 00:00:00 TRACK 07 AUDIO TITLE "Can't Buy Me Love" PERFORMER "John Lennon & Paul McCartney" INDEX 00 03:03:05FILE "07-John Lennon & Paul McCartney-Can't Buy Me Love.wav" WAVE INDEX 01 00:00:00 TRACK 08 AUDIO TITLE "Michelle" PERFORMER "John Lennon & Paul McCartney" INDEX 00 01:12:52FILE "08-John Lennon & Paul McCartney-Michelle.wav" WAVE INDEX 01 00:00:00 TRACK 09 AUDIO TITLE "Besame Mucho" PERFORMER "Consuelo Valazquez" INDEX 00 03:04:62FILE "09-Consuelo Valazquez-Besame Mucho.wav" WAVE INDEX 01 00:00:00 TRACK 10 AUDIO TITLE "Chantey Medley" PERFORMER "arr. Eric Knight" INDEX 00 03:09:72FILE "10-arr. Eric Knight-Chantey Medley.wav" WAVE INDEX 01 00:00:00 TRACK 11 AUDIO TITLE "View Me, Lord, A Work Of Thine" PERFORMER "Jackson Berkey" INDEX 00 07:01:05FILE "11-Jackson Berkey-View Me, Lord, A Work Of Thine.wav" WAVE INDEX 01 00:00:00 TRACK 12 AUDIO TITLE "Let There Be Peace On Earth" PERFORMER "Sy Miller & Jill Jackson" INDEX 00 04:02:02FILE "12-Sy Miller & Jill Jackson-Let There Be Peace On Earth.wav" WAVE INDEX 01 00:00:00 TRACK 13 AUDIO TITLE "If Music Be The Food Of Love" PERFORMER "David C. Dickau" INDEX 00 02:26:57FILE "13-David C. Dickau-If Music Be The Food Of Love.wav" WAVE INDEX 01 00:00:00 TRACK 14 AUDIO TITLE "Who Walk With Beauty" PERFORMER "Hubert Bird" INDEX 00 04:02:48FILE "14-Hubert Bird-Who Walk With Beauty.wav" WAVE INDEX 01 00:00:00 TRACK 15 AUDIO TITLE "Deep Wet Moss" PERFORMER "Robert H. Young" INDEX 00 04:30:27FILE "15-Robert H. Young-Deep Wet Moss.wav" WAVE INDEX 01 00:00:00 TRACK 16 AUDIO TITLE "God Is At The Anvil" PERFORMER "Robert H. Young" INDEX 00 01:34:57FILE "16-Robert H. Young-God Is At The Anvil.wav" WAVE INDEX 01 00:00:00 TRACK 17 AUDIO TITLE "O Loard, How Can We Know Thee?" PERFORMER "Ron Nelson" INDEX 00 00:47:17FILE "17-Ron Nelson-O Loard, How Can We Know Thee.wav" WAVE INDEX 01 00:00:00 TRACK 18 AUDIO TITLE "Cause Us, O Lord" PERFORMER "Ron Nelson" INDEX 00 02:53:20FILE "18-Ron Nelson-Cause Us, O Lord.wav" WAVE INDEX 01 00:00:00 TRACK 19 AUDIO TITLE "Danuel, Op. 51, a" PERFORMER "Kirke Mechem" INDEX 00 03:12:30FILE "19-Kirke Mechem-Danuel, Op. 51, a.wav" WAVE INDEX 01 00:00:00 TRACK 20 AUDIO TITLE "American Legacy" PERFORMER "Bruce Trinkley" INDEX 00 04:12:68FILE "20-Bruce Trinkley-American Legacy.wav" WAVE INDEX 01 00:00:00 TRACK 21 AUDIO TITLE "Prayer Of The Children" PERFORMER "Kurt Bestor" INDEX 00 04:55:20FILE "21-Kurt Bestor-Prayer Of The Children.wav" WAVE INDEX 01 00:00:00



Показать сообщения:    

Текущее время: 02-Дек 21:13

Часовой пояс: UTC + 3


Вы не можете начинать темы
Вы не можете отвечать на сообщения
Вы не можете редактировать свои сообщения
Вы не можете удалять свои сообщения
Вы не можете голосовать в опросах
Вы не можете прикреплять файлы к сообщениям
Вы не можете скачивать файлы