(Classical) Anima mea: Sacred Music of the Middle Ages - Ensemble Cosmedin - 2011, FLAC (image+.cue) lossless


 

[Цитировать]

Anima mea: Sacred Music of the Middle Ages - Ensemble Cosmedin
Жанр: Classical
Год издания диска: 2011
Издатель (лейбл): Naxos
Номер по каталогу: 8.572632
Дата записи: 2009,2010
Аудиокодек: FLAC
Тип рипа: image+.cue
Битрейт аудио: lossless
Продолжительность: 64:39
Источник: собственный рип
Наличие сканов в содержимом раздачи: да
Треклист:
[1] Adorna Thalamum [Erfurt, 1301]
[2] Credo, quod Redemptor meus vivit [St. Gallen, after 1000]
[3] Christoph Haas: Salutatio Beatae Mariae Virginis
[4] Qui habitat in adiutorio altissimi [St. Gallen, after 880]
[5] Christe qui lux es et dies [Milan, before 534]
[6] Sicut cervus [St. Gallen, after 880]
[7] Hildegard von Bingen: O viriditas digiti Dei
[8] Immutemur habitu [Erfurt, 1301]
[9] Per tuam crucem. Miserere [Paris, after 1150]
[10] Per tuam crucem. Miserere [Notre Dame, after 1200]
[11] Magnificat [Regensburg, after 1250]
[12] Exaudi nos, domine [Erfurt, 1301]
Исполнители:
Ensemble Cosmedin
Stephanie Haas voice, bell
Christoph Haas bowed psalterium, bells, long necked lute tambura, tenor fiddle rubeba

Лог создания рипа

Exact Audio Copy V1.0 beta 3 from 29. August 2011
EAC extraction logfile from 10. April 2013, 11:43
Ensemble Cosmedin / Anima mea
Used drive : HL-DT-STDVDRAM GSA-4083N Adapter: 1 ID: 0
Read mode : SecureUtilize accurate stream : YesDefeat audio cache : YesMake use of C2 pointers : No
Read offset correction : 667Overread into Lead-In and Lead-Out : NoFill up missing offset samples with silence : YesDelete leading and trailing silent blocks : NoNull samples used in CRC calculations : YesUsed interface : Native Win32 interface for Win NT & 2000
Used output format : User Defined EncoderSelected bitrate : 896 kBit/sQuality : HighAdd ID3 tag : NoCommand line compressor : C:\Program Files\Exact Audio Copy\Flac\flac.exeAdditional command line options : -V -8 %source%
TOC of the extracted CD
Track | Start | Length | Start sector | End sector --------------------------------------------------------- 1 | 0:00.00 | 2:59.52 | 0 | 13476 2 | 2:59.52 | 4:32.36 | 13477 | 33912 3 | 7:32.13 | 1:37.09 | 33913 | 41196 4 | 9:09.22 | 13:03.37 | 41197 | 99958 5 | 22:12.59 | 5:58.49 | 99959 | 126857 6 | 28:11.33 | 3:58.35 | 126858 | 144742 7 | 32:09.68 | 6:09.54 | 144743 | 172471 8 | 38:19.47 | 2:49.35 | 172472 | 185181 9 | 41:09.07 | 4:12.10 | 185182 | 204091 10 | 45:21.17 | 11:57.02 | 204092 | 257868 11 | 57:18.19 | 3:34.55 | 257869 | 273973 12 | 60:52.74 | 3:44.01 | 273974 | 290774
Range status and errors
Selected range
Filename J:\New Music\Anima mea - Ensemble Cosmedin\Anima mea.wav
Peak level 78.6 % Extraction speed 4.3 X Range quality 100.0 % Test CRC 0E23090B Copy CRC 0E23090B Copy OK
No errors occurred
End of status report
==== Log checksum 2B62A3E115B2AB7DAC72E9CB8B201099955289EFAD2F37D3C3E1989DE73D30D3 ====



Показать сообщения:    

Текущее время: 09-Дек 04:58

Часовой пояс: UTC + 3


Вы не можете начинать темы
Вы не можете отвечать на сообщения
Вы не можете редактировать свои сообщения
Вы не можете удалять свои сообщения
Вы не можете голосовать в опросах
Вы не можете прикреплять файлы к сообщениям
Вы не можете скачивать файлы