(Classical, contemporary) Paul Schoenfield: Camp Songs; Ghetto Songs • Gerard Schwarz: Rudolf and Jeanette - Angela Niederloh, Erich Parce, Morgan Smith, P. Schoenfield; Music of Remembrance, Mina Miller, G. Schwarz - 2009, FLAC (image+.cue) lossless


 

[Цитировать]

Paul Schoenfield: Camp Songs; Ghetto Songs • Gerard Schwarz: Rudolf and Jeanette - Angela Niederloh, Erich Parce, Morgan Smith, P. Schoenfield; Music of Remembrance, Mina Miller, G. Schwarz
Жанр: Classical, contemporary
Год издания диска: 2009
Издатель (лейбл): Naxos
Номер по каталогу: 8.559641
Дата записи: 2008
Аудиокодек: FLAC
Тип рипа: image+.cue
Битрейт аудио: lossless
Продолжительность: 65:05
Источник: собственный рип
Наличие сканов в содержимом раздачи: да
Треклист:
Paul Schoenfield (b.1947)
[1]-[5] Camp Songs (2001) 1
[6]-[11] Ghetto Songs (2008) 2
Gerard Schwarz (b.1947)
[12] Rudolf and Jeanette (2007) 3
Исполнители:
Angela Niederloh mezzo-soprano 1, 2
Erich Parce baritone 1
Paul Schoenfield piano 1, 2
Morgan Smith baritone 2
Music of Remembrance
Mina Miller artistic director and piano 3
Gerard Schwarz 3

Лог создания рипа

Exact Audio Copy V1.0 beta 3 from 29. August 2011
EAC extraction logfile from 19. April 2013, 0:32
Angela Niederloh (mezzo), Erich Parce (baritone), Morgan Smith (baritone), Music of Remembrance, Gerard Schwarz / Schoenfield - Camp Songs; Ghetto Songs
Used drive : HL-DT-STDVDRAM GSA-4083N Adapter: 1 ID: 0
Read mode : SecureUtilize accurate stream : YesDefeat audio cache : YesMake use of C2 pointers : No
Read offset correction : 667Overread into Lead-In and Lead-Out : NoFill up missing offset samples with silence : YesDelete leading and trailing silent blocks : NoNull samples used in CRC calculations : YesUsed interface : Native Win32 interface for Win NT & 2000
Used output format : User Defined EncoderSelected bitrate : 896 kBit/sQuality : HighAdd ID3 tag : NoCommand line compressor : C:\Program Files\Exact Audio Copy\Flac\flac.exeAdditional command line options : -V -8 %source%
TOC of the extracted CD
Track | Start | Length | Start sector | End sector --------------------------------------------------------- 1 | 0:00.00 | 4:24.18 | 0 | 19817 2 | 4:24.18 | 4:57.16 | 19818 | 42108 3 | 9:21.34 | 6:10.30 | 42109 | 69888 4 | 15:31.64 | 3:24.69 | 69889 | 85257 5 | 18:56.58 | 6:49.27 | 85258 | 115959 6 | 25:46.10 | 4:34.22 | 115960 | 136531 7 | 30:20.32 | 3:51.53 | 136532 | 153909 8 | 34:12.10 | 4:08.17 | 153910 | 172526 9 | 38:20.27 | 3:59.55 | 172527 | 190506 10 | 42:20.07 | 3:24.55 | 190507 | 205861 11 | 45:44.62 | 4:17.38 | 205862 | 225174 12 | 50:02.25 | 15:00.50 | 225175 | 292724
Range status and errors
Selected range
Filename J:\New Music\Schoenfield - Camp Songs; Ghetto Songs\Schoenfield - Camp Songs; Ghetto Songs.wav
Peak level 96.2 % Extraction speed 3.4 X Range quality 99.9 % Test CRC E78DBCA2 Copy CRC E78DBCA2 Copy OK
No errors occurred
End of status report
==== Log checksum 9DE5EDCEE4CB0EF7D91774536181E1F7505398AC2669E9613FF4F5B679010A02 ====



Показать сообщения:    

Текущее время: 07-Дек 11:40

Часовой пояс: UTC + 3


Вы не можете начинать темы
Вы не можете отвечать на сообщения
Вы не можете редактировать свои сообщения
Вы не можете удалять свои сообщения
Вы не можете голосовать в опросах
Вы не можете прикреплять файлы к сообщениям
Вы не можете скачивать файлы