(Vocal, Politisches Lied) Bertolt Brecht by Sylvia Anders (Brecht • Dessau • Eisler • Noll • Weill) - 1998, FLAC (image+.cue) lossless


 

[Цитировать]

BERTOLT BRECHT by Sylvia Anders
Brecht • Dessau • Eisler • Noll • Weill-
-
-
-
- Жанр: Vocal, Politisches Lied
Страна-производитель диска: Italy
Год издания диска: 1998
Издатель (лейбл): MYTO
Аудиокодек: FLAC
Тип рипа: image+.cue
Битрейт аудио: lossless
Продолжительность: 68'58''
Источник: собственный рип
Наличие сканов в содержимом раздачи: да
Треклист:
[1] Ballade von den Seeraubern (Brecht)
[2] Lied der Seerauber-Jenny (Brecht)
[3] Ballade vom angenehmen Leben (Weill)
[4] Gedanken eines Revuemadchens wahrend des Entkleidungsaktes (Noll)
[5] Erinnerung an die Marie A. (Brecht)
[6] Ballade vom ertrunkenen Madchen (Weill)
[7] Nachspiel zum 'Ertrunkenen Madchen' (Noll)
[8] Barbara Song (Brecht \ Weill)
[9] Surabaya-Johnny (Weill)
[10] Mann ist Mann (Brecht)
[11] Legende vom toten Soldaten (Brecht)
[12] Das deutsche Miserere (Eisler)
[13] Lied einer deutschen Mutter (Eisler)
[14] Der neue Kanonensong (Weill)
[15] Die Moldau (Eisler)
[16] Apfelbock (Brecht)
[17] Die Beschimpfung (Anders \ Noll)
[18] Das Schwein (Dessau)
[19] Die Ziege (Dessau)
[20] Das Pferd (Dessau)
[21] The Grey Goose (Eisler)
[22] Song Of The United Front (Eisler)
[23] Solidarity Song (Eisler)
[24] Abortion Is Illegal (Eisler)
[25] Ballad Of Marie Sanders (Eisler)
[26] Ballad Of The Soldier (Eisler)
Исполнители:
Sylvia Anders
with Justus Noll and Jazz Friends
-

Лог создания рипа

Exact Audio Copy V1.0 beta 3 from 29. August 2011
EAC extraction logfile from 21. April 2013, 18:56
Sylvia Anders / Bertolt Brecht by Sylvia Anders
Used drive : COMPAQ CD-ROM LTN403 Adapter: 0 ID: 0
Read mode : SecureUtilize accurate stream : YesDefeat audio cache : YesMake use of C2 pointers : No
Read offset correction : -1164Overread into Lead-In and Lead-Out : YesFill up missing offset samples with silence : YesDelete leading and trailing silent blocks : NoNull samples used in CRC calculations : YesUsed interface : Native Win32 interface for Win NT & 2000
Used output format : User Defined EncoderSelected bitrate : 128 kBit/sQuality : HighAdd ID3 tag : NoCommand line compressor : C:\Program Files\FLAC\flac.exeAdditional command line options : -T "COMMENT=rip by el coronel, rutracker.org" -8 -V %source%
TOC of the extracted CD
Track | Start | Length | Start sector | End sector --------------------------------------------------------- 1 | 0:00.00 | 6:33.02 | 0 | 29476 2 | 6:33.02 | 5:18.68 | 29477 | 53394 3 | 11:51.70 | 2:11.52 | 53395 | 63271 4 | 14:03.47 | 2:56.28 | 63272 | 76499 5 | 17:00.00 | 3:33.22 | 76500 | 92496 6 | 20:33.22 | 2:39.25 | 92497 | 104446 7 | 23:12.47 | 1:33.08 | 104447 | 111429 8 | 24:45.55 | 4:49.17 | 111430 | 133121 9 | 29:34.72 | 4:33.65 | 133122 | 153661 10 | 34:08.62 | 3:26.08 | 153662 | 169119 11 | 37:34.70 | 4:37.67 | 169120 | 189961 12 | 42:12.62 | 2:15.18 | 189962 | 200104 13 | 44:28.05 | 1:46.00 | 200105 | 208054 14 | 46:14.05 | 2:29.32 | 208055 | 219261 15 | 48:43.37 | 1:17.60 | 219262 | 225096 16 | 50:01.22 | 3:43.63 | 225097 | 241884 17 | 53:45.10 | 0:13.10 | 241885 | 242869 18 | 53:58.20 | 0:22.17 | 242870 | 244536 19 | 54:20.37 | 0:31.70 | 244537 | 246931 20 | 54:52.32 | 0:59.50 | 246932 | 251406 21 | 55:52.07 | 0:58.60 | 251407 | 255816 22 | 56:50.67 | 2:29.40 | 255817 | 267031 23 | 59:20.32 | 1:41.08 | 267032 | 274614 24 | 61:01.40 | 2:34.20 | 274615 | 286184 25 | 63:35.60 | 2:12.05 | 286185 | 296089 26 | 65:47.65 | 3:10.20 | 296090 | 310359
Range status and errors
Selected range
Filename C:\Documents and Settings\User.X-TEAM\Мои документы\Sylvia Anders - Bertolt Brecht by Sylvia Anders.wav
Peak level 97.7 % Extraction speed 2.9 X Range quality 99.9 % Test CRC A5DC1480 Copy CRC A5DC1480 Copy OK
No errors occurred
AccurateRip summary
Track 1 accurately ripped (confidence 1) [F47A62B4] (AR v1)Track 2 accurately ripped (confidence 1) [66447FE7] (AR v1)Track 3 accurately ripped (confidence 1) [7DF783DF] (AR v1)Track 4 accurately ripped (confidence 1) [ABAE5EAC] (AR v1)Track 5 accurately ripped (confidence 1) [F762003C] (AR v1)Track 6 accurately ripped (confidence 1) [3394E488] (AR v1)Track 7 accurately ripped (confidence 1) [3F827899] (AR v1)Track 8 accurately ripped (confidence 1) [ADB53B34] (AR v1)Track 9 accurately ripped (confidence 1) [DBC89A70] (AR v1)Track 10 accurately ripped (confidence 1) [3F698DD1] (AR v1)Track 11 accurately ripped (confidence 1) [24FC91B6] (AR v1)Track 12 accurately ripped (confidence 1) [A4782FFD] (AR v1)Track 13 accurately ripped (confidence 1) [B7880A26] (AR v1)Track 14 accurately ripped (confidence 1) [73E1E263] (AR v1)Track 15 accurately ripped (confidence 1) [2FAF1E38] (AR v1)Track 16 accurately ripped (confidence 1) [A2F1EEB1] (AR v1)Track 17 accurately ripped (confidence 1) [FB184FDD] (AR v1)Track 18 accurately ripped (confidence 1) [F5B7B3EF] (AR v1)Track 19 accurately ripped (confidence 1) [9E55E870] (AR v1)Track 20 accurately ripped (confidence 1) [15995BCF] (AR v1)Track 21 accurately ripped (confidence 1) [07D5569D] (AR v1)Track 22 accurately ripped (confidence 1) [7C0C6955] (AR v1)Track 23 accurately ripped (confidence 1) [49FE937F] (AR v1)Track 24 accurately ripped (confidence 1) [B9559B96] (AR v1)Track 25 accurately ripped (confidence 1) [7BFA1C1B] (AR v1)Track 26 accurately ripped (confidence 1) [F38E0932] (AR v1)
All tracks accurately ripped
End of status report
==== Log checksum CCDC099086F7361E655EDD1772E62CB12F60A43B8DFD8FBB5D4E69FB617C0961 ====

Содержание индексной карты (.CUE)

REM DATE 1998REM DISCID 78102A1AREM COMMENT ExactAudioCopy v1.0b3PERFORMER "Sylvia Anders with Justus Noll and Jazz Friends"TITLE "Bertolt Brecht by Sylvia Anders"FILE "Sylvia Anders - Bertolt Brecht by Sylvia Anders.flac" WAVE TRACK 01 AUDIO TITLE "Ballade von den Seeraubern (Brecht)" INDEX 01 00:00:00 TRACK 02 AUDIO TITLE "Lied der Seerauber-Jenny (Brecht)" INDEX 01 06:33:02 TRACK 03 AUDIO TITLE "Ballade vom angenehmen Leben (Weill)" INDEX 01 11:51:70 TRACK 04 AUDIO TITLE "Gedanken eines Revuemadchens wahrend des Entkleidungsaktes (Noll)" INDEX 01 14:03:47 TRACK 05 AUDIO TITLE "Erinnerung an die Marie A. (Brecht)" INDEX 01 17:00:00 TRACK 06 AUDIO TITLE "Ballade vom ertrunkenen Madchen (Weill)" INDEX 01 20:33:22 TRACK 07 AUDIO TITLE "Nachspiel zum 'Ertrunkenen Madchen' (Noll)" INDEX 01 23:12:47 TRACK 08 AUDIO TITLE "Barbara Song (Brecht \ Weill)" INDEX 01 24:45:55 TRACK 09 AUDIO TITLE "Surabaya-Johnny (Weill)" INDEX 01 29:34:72 TRACK 10 AUDIO TITLE "Mann ist Mann (Brecht)" INDEX 01 34:08:62 TRACK 11 AUDIO TITLE "Legende vom toten Soldaten (Brecht)" INDEX 01 37:34:70 TRACK 12 AUDIO TITLE "Das deutsche Miserere (Eisler)" INDEX 01 42:12:62 TRACK 13 AUDIO TITLE "Lied einer deutschen Mutter (Eisler)" INDEX 01 44:28:05 TRACK 14 AUDIO TITLE "Der neue Kanonensong (Weill)" INDEX 01 46:14:05 TRACK 15 AUDIO TITLE "Die Moldau (Eisler)" INDEX 01 48:43:37 TRACK 16 AUDIO TITLE "Apfelbock (Brecht)" INDEX 01 50:01:22 TRACK 17 AUDIO TITLE "Die Beschimpfung (Andres \ Noll)" INDEX 01 53:45:10 TRACK 18 AUDIO TITLE "Das Schwein (Dessau)" INDEX 01 53:58:20 TRACK 19 AUDIO TITLE "Die Ziege (Dessau)" INDEX 01 54:20:37 TRACK 20 AUDIO TITLE "Das Pferd (Dessau)" INDEX 01 54:52:32 TRACK 21 AUDIO TITLE "The Grey Goose (Eisler)" INDEX 01 55:52:07 TRACK 22 AUDIO TITLE "Song Of The United Front (Eisler)" INDEX 01 56:50:67 TRACK 23 AUDIO TITLE "Solidarity Song (Eisler)" INDEX 01 59:20:32 TRACK 24 AUDIO TITLE "Abotion Is Illegal (Eisler)" INDEX 01 61:01:40 TRACK 25 AUDIO TITLE "Ballad Of Marie Sanders (Eisler)" INDEX 01 63:35:60 TRACK 26 AUDIO TITLE "Ballad Of The Soldier (Eisler)" INDEX 01 65:47:65
- (Lied) Paul Dessau - 29 Lieder \ 29 songs \ 29 песен (R.Trexler, S.Gezsty, S.Kehler, A.Burmeister, P.Schreier, V.Bayer, S.Vogel; T.Heyn, W.Olbertz, J.Czapski, M.Pommer, H.Jung)



Показать сообщения:    

Текущее время: 04-Дек 13:12

Часовой пояс: UTC + 3


Вы не можете начинать темы
Вы не можете отвечать на сообщения
Вы не можете редактировать свои сообщения
Вы не можете удалять свои сообщения
Вы не можете голосовать в опросах
Вы не можете прикреплять файлы к сообщениям
Вы не можете скачивать файлы