(Classical, Baroque) Il caro Sassone: Handel in Italy - Armida abbandonata; Salve Regina; Alpestre monte; Arias; Sonatas - Lucy Crowe, The English Concert, Harry Bicket - 2011, FLAC (image+.cue) lossless


 

[Цитировать]

Il caro Sassone: Handel in Italy - Armida abbandonata; Salve Regina; Alpestre monte; Arias; Sonatas - Lucy Crowe, The English Concert, Harry Bicket
Жанр: Classical, Baroque
Страна-производитель диска: USA
Год издания диска: 2011
Издатель (лейбл): Harmonia Mundi USA
Номер по каталогу: HMU 907559
Дата записи: 2010
Аудиокодек: FLAC
Тип рипа: image+.cue
Битрейт аудио: lossless
Продолжительность: 74:33
Источник: собственный рип
Наличие сканов в содержимом раздачи: да
Треклист:
George Frideric Handel (1685-1759)
[1]-[7] Armida abbandonata, HWV 105
[8] Delirio Amoroso, HWV 99 - Sonata
[9] Il trionfo del Tempo e del Disinganno, HWV 46a - Aria: Lascia la spina
[10]-[13] Salve Regina, HWV 241
[14] La Resurrezione, HWV 47 - Aria: Disserratevi, o porte d'Averno
[15] Tu fedel? tu costante?, HWV 171 - Sonata
[16]-[19] Alpestre monte, HWV 81
[20] Sonata a 5, HWV 288 - Andante
[21]-[22] Clori, Tirsi e Fileno, HWV 96 - Recitative: Tirsi, mio caro; Aria: Barbaro, tu non credi
[23] Aminta e Fillide, HWV 83 - Aria: Se vago rio
Исполнители:
Lucy Crowe soprano
The English Concert
Harry Bicket

Лог создания рипа

Exact Audio Copy V1.0 beta 3 from 29. August 2011
EAC extraction logfile from 11. April 2013, 16:00
Lucy Crowe, The English Concert, Harry Bicket / Il caro Sassone - Handel in Italy
Used drive : HL-DT-STDVDRRW GWA-4164B Adapter: 5 ID: 0
Read mode : SecureUtilize accurate stream : YesDefeat audio cache : YesMake use of C2 pointers : No
Read offset correction : 102Overread into Lead-In and Lead-Out : NoFill up missing offset samples with silence : YesDelete leading and trailing silent blocks : NoNull samples used in CRC calculations : YesUsed interface : Native Win32 interface for Win NT & 2000
Used output format : User Defined EncoderSelected bitrate : 896 kBit/sQuality : HighAdd ID3 tag : NoCommand line compressor : C:\Program Files\Exact Audio Copy\FLAC\FLAC.EXEAdditional command line options : -V -8 %source%
TOC of the extracted CD
Track | Start | Length | Start sector | End sector --------------------------------------------------------- 1 | 0:00.00 | 1:02.60 | 0 | 4709 2 | 1:02.60 | 5:28.71 | 4710 | 29380 3 | 6:31.56 | 0:23.63 | 29381 | 31168 4 | 6:55.44 | 0:50.08 | 31169 | 34926 5 | 7:45.52 | 2:53.32 | 34927 | 47933 6 | 10:39.09 | 0:57.08 | 47934 | 52216 7 | 11:36.17 | 4:50.56 | 52217 | 74022 8 | 16:26.73 | 4:59.17 | 74023 | 96464 9 | 21:26.15 | 5:20.08 | 96465 | 120472 10 | 26:46.23 | 3:10.16 | 120473 | 134738 11 | 29:56.39 | 3:22.00 | 134739 | 149888 12 | 33:18.39 | 3:50.55 | 149889 | 167193 13 | 37:09.19 | 1:46.71 | 167194 | 175214 14 | 38:56.15 | 5:25.21 | 175215 | 199610 15 | 44:21.36 | 2:29.37 | 199611 | 210822 16 | 46:50.73 | 0:54.64 | 210823 | 214936 17 | 47:45.62 | 5:28.44 | 214937 | 239580 18 | 53:14.31 | 0:55.51 | 239581 | 243756 19 | 54:10.07 | 4:38.73 | 243757 | 264679 20 | 58:49.05 | 3:35.47 | 264680 | 280851 21 | 62:24.52 | 0:57.55 | 280852 | 285181 22 | 63:22.32 | 8:25.53 | 285182 | 323109 23 | 71:48.10 | 2:42.72 | 323110 | 335331
Range status and errors
Selected range
Filename C:\temp\Il caro Sassone - Handel in Italy\Il caro Sassone - Handel in Italy.wav
Peak level 94.7 % Extraction speed 3.6 X Range quality 100.0 % Test CRC D0CD8917 Copy CRC D0CD8917 Copy OK
No errors occurred
End of status report
==== Log checksum 4B5D8972983924BEF1FFFACB74E856B70B633059C3DDF10A0E82D336E8EC7E0D ====



Показать сообщения:    

Текущее время: 07-Дек 00:55

Часовой пояс: UTC + 3


Вы не можете начинать темы
Вы не можете отвечать на сообщения
Вы не можете редактировать свои сообщения
Вы не можете удалять свои сообщения
Вы не можете голосовать в опросах
Вы не можете прикреплять файлы к сообщениям
Вы не можете скачивать файлы