(Classical, song) Robert Schumann - Liederkreis, Opp. 24 & 39; Sechs Gedichte, Op. 36 - Gerald Finley, Julius Drake - 2012, FLAC (image+.cue) lossless


 

[Цитировать]

Robert Schumann - Liederkreis, Opp. 24 & 39; Sechs Gedichte, Op. 36 - Gerald Finley, Julius Drake
Жанр: Classical, song
Страна-производитель диска: UK
Год издания диска: 2012
Издатель (лейбл): Hyperion
Номер по каталогу: CDA67944
Дата записи: 2011,2012
Аудиокодек: FLAC
Тип рипа: image+.cue
Битрейт аудио: lossless
Продолжительность: 64:30
Источник: собственный рип
Наличие сканов в содержимом раздачи: да
Треклист:
Robert Schumann (1810-1856)
[1]-[12] Liederkreis, Op. 39 (Eichendorff)
[13]-[18] Sechs Gedichte aus dem Liederbuch eines Malers, Op. 36 (Reinick)
[19]-[27] Liederkreis, Op. 24 (Heine)
Исполнители:
Gerald Finley baritone
Julius Drake piano

Лог создания рипа

Exact Audio Copy V1.0 beta 3 from 29. August 2011
EAC extraction logfile from 28. March 2013, 1:15
Gerald Finley, Julius Drake / Schumann - Liederkreis
Used drive : HL-DT-STDVDRAM GSA-4083N Adapter: 1 ID: 0
Read mode : SecureUtilize accurate stream : YesDefeat audio cache : YesMake use of C2 pointers : No
Read offset correction : 667Overread into Lead-In and Lead-Out : NoFill up missing offset samples with silence : YesDelete leading and trailing silent blocks : NoNull samples used in CRC calculations : YesUsed interface : Native Win32 interface for Win NT & 2000
Used output format : User Defined EncoderSelected bitrate : 896 kBit/sQuality : HighAdd ID3 tag : NoCommand line compressor : C:\Program Files\Exact Audio Copy\Flac\flac.exeAdditional command line options : -V -8 %source%
TOC of the extracted CD
Track | Start | Length | Start sector | End sector --------------------------------------------------------- 1 | 0:00.00 | 2:05.48 | 0 | 9422 2 | 2:05.48 | 1:33.18 | 9423 | 16415 3 | 3:38.66 | 2:27.04 | 16416 | 27444 4 | 6:05.70 | 1:47.60 | 27445 | 35529 5 | 7:53.55 | 4:19.56 | 35530 | 55010 6 | 12:13.36 | 1:31.37 | 55011 | 61872 7 | 13:44.73 | 3:05.14 | 61873 | 75761 8 | 16:50.12 | 1:27.06 | 75762 | 82292 9 | 18:17.18 | 2:46.57 | 82293 | 94799 10 | 21:04.00 | 3:01.33 | 94800 | 108407 11 | 24:05.33 | 1:31.39 | 108408 | 115271 12 | 25:36.72 | 1:22.06 | 115272 | 121427 13 | 26:59.03 | 2:29.36 | 121428 | 132638 14 | 29:28.39 | 1:54.33 | 132639 | 141221 15 | 31:22.72 | 1:45.02 | 141222 | 149098 16 | 33:07.74 | 1:38.53 | 149099 | 156501 17 | 34:46.52 | 2:39.31 | 156502 | 168457 18 | 37:26.08 | 5:31.74 | 168458 | 193356 19 | 42:58.07 | 1:03.58 | 193357 | 198139 20 | 44:01.65 | 1:12.67 | 198140 | 203606 21 | 45:14.57 | 3:45.46 | 203607 | 220527 22 | 49:00.28 | 0:55.74 | 220528 | 224726 23 | 49:56.27 | 3:43.42 | 224727 | 241493 24 | 53:39.69 | 2:05.74 | 241494 | 250942 25 | 55:45.68 | 3:41.21 | 250943 | 267538 26 | 59:27.14 | 0:59.70 | 267539 | 272033 27 | 60:27.09 | 4:00.70 | 272034 | 290103
Range status and errors
Selected range
Filename J:\New Music\Schumann - Liederkreis - Finley\Schumann - Liederkreis.wav
Peak level 100.0 % Extraction speed 4.2 X Range quality 100.0 % Test CRC 0028F681 Copy CRC 0028F681 Copy OK
No errors occurred
End of status report
==== Log checksum 3C22948180DC79C333AE6F19DEACFDC62311870E5DEF08DA36A679DCFD38B415 ====



Показать сообщения:    

Текущее время: 11-Дек 01:29

Часовой пояс: UTC + 3


Вы не можете начинать темы
Вы не можете отвечать на сообщения
Вы не можете редактировать свои сообщения
Вы не можете удалять свои сообщения
Вы не можете голосовать в опросах
Вы не можете прикреплять файлы к сообщениям
Вы не можете скачивать файлы